<?xml version="1.0" standalone="no"?>
<!DOCTYPE svg PUBLIC "-//W3C//DTD SVG 1.1//EN" "http://www.w3.org/Graphics/SVG/1.1/DTD/svg11.dtd" >
<svg xmlns="http://www.w3.org/2000/svg" version="1.1">
<metadata></metadata>
<defs>
<font id="suzukiproregularregular" horiz-adv-x="540" >
<font-face units-per-em="1000" ascent="798" descent="-202" />
<missing-glyph horiz-adv-x="300" />
<glyph unicode="&#xfb01;" horiz-adv-x="539" d="M441 660q-23 5 -64 11.5t-96 6.5q-54 0 -77.5 -19t-23.5 -58v-61h279v-540h-80v475h-199v-475h-80v475h-80v65h80v55q0 64 43.5 106t129.5 42q60 0 101.5 -7t66.5 -13v-63z" />
<glyph unicode="&#xfb02;" horiz-adv-x="539" d="M379 0v669q-20 4 -44.5 6.5t-57.5 2.5q-97 0 -97 -77v-61h101v-65h-101v-475h-80v475h-80v65h80v55q0 64 43.5 106t125.5 42q57 0 104.5 -6t85.5 -14v-723h-80z" />
<glyph unicode="&#xfb03;" horiz-adv-x="818" d="M658 0v475h-199v-475h-80v475h-199v-475h-80v475h-80v65h80v47q0 64 43.5 106t129.5 42q57 0 99.5 -7t67.5 -14q43 29 112 29q60 0 102 -7.5t66 -12.5v-63q-22 5 -63.5 11.5t-96.5 6.5q-54 0 -77.5 -19t-23.5 -58v-61h279v-540h-80zM180 540h199v55q0 36 14 66 q-23 4 -51 6.5t-61 2.5q-54 0 -77.5 -19t-23.5 -58v-53z" />
<glyph unicode="&#xfb04;" horiz-adv-x="808" d="M648 0v672q-20 2 -41.5 4t-46.5 2q-54 0 -77.5 -19t-23.5 -58v-61h93v-65h-93v-475h-80v475h-199v-475h-80v475h-80v65h80v47q0 64 43.5 106t129.5 42q57 0 99.5 -7t67.5 -14q43 29 112 29q63 0 107.5 -8.5t68.5 -14.5v-720h-80zM180 540h199v55q0 36 14 66 q-23 4 -51 6.5t-61 2.5q-54 0 -77.5 -19t-23.5 -58v-53z" />
<glyph horiz-adv-x="0" />
<glyph unicode="&#xd;" horiz-adv-x="220" />
<glyph unicode=" "  horiz-adv-x="300" />
<glyph unicode="&#x09;" horiz-adv-x="300" />
<glyph unicode="&#xa0;" horiz-adv-x="300" />
<glyph unicode="!" horiz-adv-x="270" d="M98 240l-10 480h90l-10 -480h-70zM85 0v100h100v-100h-100z" />
<glyph unicode="&#x22;" horiz-adv-x="400" d="M150 502h-50l-25 140v93h100v-92zM300 502h-50l-25 140v93h100v-92z" />
<glyph unicode="#" horiz-adv-x="575" d="M498 197h-84l-17 -197h-71l17 197h-142l-17 -197h-71l17 197h-79l4 61h80l17 189h-81l6 61h80l17 192h71l-17 -192h142l17 192h71l-17 -192h83l-6 -61h-82l-17 -189h83zM206 258h142l17 189h-142z" />
<glyph unicode="$" d="M280 644q-24 0 -46 -6t-38.5 -19t-26.5 -33.5t-10 -48.5q0 -21 5.5 -38.5t21 -33.5t43.5 -31.5t72 -31.5q36 -13 70.5 -30t60.5 -42.5t42 -61t16 -86.5q0 -35 -12 -67.5t-34.5 -58.5t-55 -44t-72.5 -24v-123h-72v122q-42 5 -74.5 21t-56.5 38.5t-39.5 48.5t-22.5 51 l78 14q6 -20 17 -39t29 -34t44 -24.5t61 -9.5q20 0 42.5 6.5t41 21.5t31 38t12.5 56q0 38 -11 63t-33.5 43t-57 33t-81.5 34q-78 31 -112 77t-34 103q0 75 43.5 122.5t122.5 57.5v112h72v-113q35 -5 63 -19.5t49 -34.5t35 -44.5t22 -49.5l-74 -14q-12 39 -43.5 69t-87.5 30z " />
<glyph unicode="%" horiz-adv-x="740" d="M268 0h-74l275 700h74zM60 541q0 42 11 74t30 53t43 31.5t51 10.5t51.5 -10.5t43 -31.5t30 -53t11.5 -74t-11.5 -73.5t-30.5 -52.5t-43.5 -31t-50.5 -10t-50.5 10t-43.5 31t-30 52.5t-11 73.5zM130 541q0 -60 18 -86t47 -26t48 26t19 86t-19 86t-48 26t-47 -26t-18 -86z M409 159q0 42 11 74t30 53t43 31.5t51 10.5t51.5 -10.5t43 -31.5t30 -53t11.5 -74t-11.5 -73.5t-30.5 -52.5t-43.5 -31t-50.5 -10t-50.5 10t-43.5 31t-30 52.5t-11 73.5zM479 159q0 -60 18 -86t47 -26t48 26t19 86t-19 86t-48 26t-47 -26t-18 -86z" />
<glyph unicode="&#x26;" horiz-adv-x="697" d="M600 349q-6 -60 -20.5 -112.5t-38.5 -97.5l136 -139h-98l-79 80q-37 -42 -89 -66t-122 -24q-45 0 -83.5 14t-66.5 38.5t-43.5 58t-15.5 72.5q0 36 9 64t26.5 51.5t42 43.5t56.5 40q-43 44 -71.5 85.5t-28.5 94.5q0 30 10.5 58.5t32.5 50.5t55.5 35.5t78.5 13.5 q43 0 75.5 -12.5t54.5 -33.5t33.5 -48t11.5 -55q0 -34 -9 -61t-27 -50t-45 -43.5t-63 -41.5l167 -172q18 38 28.5 82t14.5 90zM301 55q48 0 84.5 20.5t65.5 55.5l-192 196q-52 -33 -74 -66t-22 -81q0 -23 7 -45t23.5 -40t43 -29t64.5 -11zM192 552q0 -17 4.5 -32t15 -31 t26.5 -35t40 -44q35 20 57.5 37.5t36 34.5t18.5 35.5t5 40.5q0 45 -30 68t-72 23q-51 0 -76 -25.5t-25 -71.5z" />
<glyph unicode="'" horiz-adv-x="250" d="M150 502h-50l-25 140v93h100v-92z" />
<glyph unicode="(" horiz-adv-x="340" d="M75 330q0 91 12.5 161.5t33 127t46.5 102.5t54 89h64q-25 -46 -49 -96t-43 -107.5t-30.5 -126t-11.5 -150.5q0 -83 11.5 -151t30.5 -126t43 -107.5t49 -95.5h-64q-28 43 -54 89t-46.5 102.5t-33 126.5t-12.5 162z" />
<glyph unicode=")" horiz-adv-x="340" d="M265 329q0 -92 -12.5 -162.5t-33 -127t-46.5 -102.5t-54 -89h-64q25 46 49 96t43 108t30.5 126t11.5 151q0 82 -11.5 150.5t-30.5 126.5t-43 108t-49 96h64q28 -42 54 -88.5t46.5 -103t33 -127.5t12.5 -162z" />
<glyph unicode="*" horiz-adv-x="470" d="M258 584l139 60l23 -72l-146 -33l99 -112l-62 -44l-76 128l-76 -129l-61 45l98 112l-147 32l24 72l138 -60l-14 152h76z" />
<glyph unicode="+" d="M231 288h-166v70h166v163h78v-163h166v-70h-166v-166h-78v166z" />
<glyph unicode="," horiz-adv-x="230" d="M95 -142h-56l55 142h-29v100h100v-99z" />
<glyph unicode="-" horiz-adv-x="425" d="M60 287v72h305v-72h-305z" />
<glyph unicode="." horiz-adv-x="230" d="M65 0v100h100v-100h-100z" />
<glyph unicode="/" horiz-adv-x="265" d="M66 -90h-76l209 810h76z" />
<glyph unicode="0" d="M67 344q0 98 14.5 166t41 110t64 61t84.5 19t84.5 -19t64 -61t40.5 -110t14 -166q0 -96 -14.5 -163.5t-40.5 -109.5t-64 -61.5t-84 -19.5q-47 0 -84.5 19.5t-64 62t-41 110t-14.5 162.5zM149 344q0 -79 8 -134t24 -90t38.5 -51t51.5 -16t51.5 16t38.5 51t24 90t8 134 t-8.5 134.5t-24 90.5t-38.5 51.5t-51 16.5q-29 0 -51.5 -16.5t-38 -51.5t-24 -90.5t-8.5 -134.5z" />
<glyph unicode="1" d="M135 0v69h133v555l-142 -84v78l136 82h85v-631h109v-69h-321z" />
<glyph unicode="2" d="M274 646q-51 0 -81 -34t-36 -86l-78 12q7 36 23.5 67.5t41.5 55t59.5 36.5t77.5 13q35 0 69 -11t60.5 -34t42.5 -59t16 -85q0 -29 -7.5 -57.5t-23.5 -58.5t-40.5 -64t-58.5 -74l-163 -196h287v-71h-380v71l205 253q27 33 46 59t31.5 48.5t18 44.5t5.5 47q0 54 -27.5 88.5 t-87.5 34.5z" />
<glyph unicode="3" d="M263 53q23 0 45 7t39.5 23t28 43t10.5 67q0 41 -9 68t-25 43.5t-38 23t-48 6.5h-56v67h54q46 0 74 32t28 92q0 66 -29.5 95.5t-77.5 29.5q-26 0 -45.5 -10.5t-33.5 -26t-22 -35t-11 -37.5l-73 12q8 41 27 71t45 49t56 28t61 9q37 0 71 -11.5t59 -34t40 -55.5t15 -76 q0 -66 -32.5 -108t-86.5 -51q28 -3 53 -16.5t44 -36t30.5 -54t11.5 -71.5q0 -53 -17.5 -92t-46.5 -64.5t-65.5 -37.5t-74.5 -12q-69 0 -122 42t-72 116l73 11q3 -18 12.5 -37t25 -34t36 -25t46.5 -10z" />
<glyph unicode="4" d="M389 444v-242h96v-65h-96v-137h-77v137h-236v72l138 491h79l-140 -498h161l17 242h58z" />
<glyph unicode="5" d="M258 54q19 0 41 6.5t40.5 25.5t30.5 52t12 87q0 45 -8.5 76.5t-23.5 51.5t-35.5 29t-45.5 9q-40 0 -69 -20.5t-42 -50.5h-60l19 380h305v-64h-233l-12 -230q20 20 48 31.5t63 11.5t67 -11t56.5 -37.5t39 -70t14.5 -109.5q0 -52 -14.5 -94.5t-41.5 -73t-65.5 -47 t-86.5 -16.5q-35 0 -65.5 11.5t-54.5 31.5t-40.5 47t-23.5 58l74 11q8 -39 35.5 -67t75.5 -28z" />
<glyph unicode="6" d="M301 651q-26 0 -50.5 -12t-44 -43.5t-31.5 -85.5t-13 -137q26 32 62.5 52t81.5 20q44 0 76 -16.5t53 -46t31 -71t10 -90.5q0 -59 -16 -102t-43 -72t-62 -43t-73 -14q-102 0 -151 86t-49 269q0 115 22 186.5t55 111t71 53.5t71 14q34 0 61.5 -10.5t48 -28t34.5 -39.5 t22 -45l-72 -13q-16 43 -42 60t-52 17zM289 382q-40 0 -72 -20.5t-55 -46.5q2 -75 10 -125t23 -80.5t37 -43.5t51 -13q21 0 41.5 7t36 25.5t25 50t9.5 79.5q0 90 -28.5 128.5t-77.5 38.5z" />
<glyph unicode="7" d="M246 0h-88l232 630h-288v70h364v-80z" />
<glyph unicode="8" d="M270 -10q-50 0 -88.5 14.5t-65.5 40t-41 59.5t-14 73q0 46 15 79t36.5 55t45.5 34.5t41 18.5q-18 8 -38.5 21.5t-37.5 34t-28.5 48t-11.5 62.5q0 48 16 82t42 55.5t59.5 32t69.5 10.5t69.5 -9.5t59.5 -30t42 -53.5t16 -80q0 -36 -13 -63.5t-32 -47t-39.5 -31.5t-36.5 -18 q17 -6 41.5 -19.5t47 -36.5t38.5 -57t16 -80q0 -42 -14 -77.5t-41 -61.5t-66 -40.5t-88 -14.5zM393 184q0 39 -16.5 66t-39.5 44.5t-48 27.5t-42 16q-19 -11 -37 -22.5t-32 -28.5t-22.5 -41.5t-8.5 -61.5q0 -57 32.5 -94.5t90.5 -37.5t90.5 34.5t32.5 97.5zM376 535 q0 30 -8.5 52.5t-23 36.5t-34 21t-40.5 7t-40.5 -6.5t-34.5 -20.5t-24 -36.5t-9 -53.5q0 -33 15.5 -56t36.5 -38.5t42 -24.5t32 -13q7 4 22 14t29.5 26.5t25.5 39t11 52.5z" />
<glyph unicode="9" d="M268 51q31 0 55 14.5t40.5 47.5t25 86.5t9.5 131.5q-22 -31 -56 -51t-83 -20q-46 0 -79 16t-54.5 45t-31.5 69.5t-10 89.5q0 58 15.5 101t42.5 71.5t62.5 43t76.5 14.5q52 0 89 -20t61 -62t35.5 -107.5t11.5 -155.5q0 -114 -17 -187t-45.5 -115t-66.5 -57.5t-81 -15.5 q-67 0 -108.5 32.5t-58.5 80.5l73 15q14 -40 40.5 -53.5t53.5 -13.5zM273 320q40 0 71 21.5t53 48.5q-2 75 -9.5 125.5t-22 81t-35.5 43t-49 12.5q-21 0 -42 -8t-37.5 -27.5t-26.5 -51.5t-10 -79q0 -88 28.5 -127t79.5 -39z" />
<glyph unicode=":" horiz-adv-x="230" d="M65 0v100h100v-100h-100zM65 439v100h100v-100h-100z" />
<glyph unicode=";" horiz-adv-x="230" d="M65 439v100h100v-100h-100zM95 -142h-56l55 142h-29v100h100v-99z" />
<glyph unicode="&#x3c;" d="M65 281v90l410 170v-80l-347 -136l347 -154v-80z" />
<glyph unicode="=" d="M65 391v70h410v-70h-410zM65 191v70h410v-70h-410z" />
<glyph unicode="&#x3e;" d="M65 91v80l347 154l-347 136v80l410 -170v-90z" />
<glyph unicode="?" horiz-adv-x="484" d="M249 670q-45 0 -76.5 -29.5t-38.5 -74.5l-79 12q9 36 27.5 65t44.5 49.5t58 31.5t67 11q81 0 129 -42.5t48 -120.5q0 -36 -10.5 -62t-26 -47t-34 -37.5t-34 -33.5t-26 -36t-10.5 -43v-93h-82v107q0 28 10.5 49.5t26 40t33.5 35t33.5 34.5t26 39t10.5 49q0 18 -5.5 35.5 t-17 31t-30 21.5t-44.5 8zM197 0v105h105v-105h-105z" />
<glyph unicode="@" horiz-adv-x="920" d="M654 98q-25 0 -43.5 7.5t-30.5 19.5t-18.5 27.5t-8.5 31.5q-14 -34 -45.5 -59t-85.5 -25q-27 0 -52 9.5t-44.5 31.5t-31 56.5t-11.5 84.5q0 81 18.5 135t47 86.5t62.5 46t66 13.5q27 0 47 -8.5t36 -22.5l10 24h61l-31 -258q-1 -5 -2 -14t-1.5 -18t-1 -17.5t-0.5 -12.5 q0 -45 14 -65t42 -20q21 0 41 14t35.5 41.5t24.5 68.5t9 95q0 147 -69 227.5t-206 80.5q-54 0 -112 -21.5t-106 -66t-78.5 -114t-30.5 -165.5q0 -85 24 -149t65 -106.5t95 -64t115 -21.5q50 0 82.5 4.5t64.5 10.5v-58q-31 -7 -68.5 -12.5t-86.5 -5.5q-78 0 -145.5 27 t-117.5 78.5t-78.5 126.5t-28.5 171q0 117 39 197.5t98.5 130.5t131 72.5t137.5 22.5q79 0 144 -22.5t111.5 -67.5t72.5 -113.5t26 -160.5q0 -50 -12 -98.5t-35.5 -87.5t-58.5 -63t-80 -24zM441 157q30 0 53 24.5t31 89.5l26 219q-10 9 -22 13.5t-33 4.5q-23 0 -46.5 -9.5 t-43.5 -35.5t-32.5 -71.5t-12.5 -116.5q0 -36 6.5 -59t18 -36t26 -18t29.5 -5z" />
<glyph unicode="A" horiz-adv-x="553" d="M453 0l-52 187h-254l-53 -187h-84l216 720h102l215 -720h-90zM165 252h218l-107 390z" />
<glyph unicode="B" horiz-adv-x="559" d="M259 720q112 0 169.5 -47.5t57.5 -138.5q0 -57 -30.5 -98t-78.5 -56q27 -6 51 -19.5t42 -35.5t28.5 -53.5t10.5 -72.5q0 -58 -22 -96t-58 -61t-81 -32.5t-91 -9.5h-167v720h169zM175 347v-282h97q30 0 56.5 6.5t47 21.5t32.5 41t12 65q0 34 -7.5 61t-24.5 46.5t-44.5 30 t-66.5 10.5h-102zM175 661v-253h98q69 0 98.5 33t29.5 93q0 64 -36.5 95.5t-97.5 31.5h-92z" />
<glyph unicode="C" horiz-adv-x="582" d="M318 53q54 0 86.5 29t49.5 83l83 -8q-24 -77 -77 -124.5t-144 -47.5q-40 0 -83.5 16t-79.5 57.5t-59.5 114.5t-23.5 187q0 112 23 185t59 115t80.5 58.5t87.5 16.5q47 0 82.5 -14.5t60.5 -37.5t41 -52t24 -57l-82 -11q-15 48 -44.5 76.5t-81.5 28.5q-34 0 -63.5 -14.5 t-51.5 -50t-34.5 -94.5t-12.5 -149q0 -89 13 -148t34.5 -94t50.5 -50t62 -15z" />
<glyph unicode="D" horiz-adv-x="611" d="M237 720q53 0 107 -14t98 -53.5t71.5 -110t27.5 -182.5q0 -113 -30.5 -183t-76 -109.5t-99 -53.5t-99.5 -14h-146v720h147zM175 657v-591h66q39 0 77.5 11.5t68.5 43.5t49 89.5t19 149.5t-20 150t-51.5 90.5t-69.5 44.5t-75 12h-64z" />
<glyph unicode="E" horiz-adv-x="500" d="M410 333h-235v-265h265v-68h-350v720h350v-68h-265v-253h235v-66z" />
<glyph unicode="F" horiz-adv-x="470" d="M400 312h-225v-312h-85v720h340v-68h-255v-272h225v-68z" />
<glyph unicode="G" horiz-adv-x="598" d="M521 0h-50l-13 51q-28 -33 -66.5 -49t-81.5 -16q-42 0 -84.5 15.5t-77 57.5t-56.5 115t-22 187q0 115 24.5 188t62 114.5t82 57t84.5 15.5q41 0 73.5 -12t57.5 -32.5t41.5 -47t25.5 -56.5l-82 -12q-11 39 -37.5 67t-78.5 28q-30 0 -59.5 -14t-53.5 -49.5t-38.5 -95.5 t-14.5 -151q0 -89 12.5 -148t33.5 -95t49 -51t60 -15q92 0 133 62v215h-123v68h199v-397z" />
<glyph unicode="H" horiz-adv-x="620" d="M530 720v-720h-85v330h-270v-330h-85v720h85v-322h270v322h85z" />
<glyph unicode="I" horiz-adv-x="265" d="M175 720v-720h-85v720h85z" />
<glyph unicode="J" horiz-adv-x="324" d="M154 720h85v-555q0 -96 -34 -137.5t-104 -41.5q-26 0 -47 4t-39 10v69q17 -5 39.5 -9t36.5 -4q17 0 29 4t19.5 16t11 33.5t3.5 57.5v553z" />
<glyph unicode="K" horiz-adv-x="543" d="M424 0l-249 335v-335h-85v720h85v-314l226 314h95l-251 -343l283 -377h-104z" />
<glyph unicode="L" horiz-adv-x="472" d="M175 720v-646h277v-74h-362v720h85z" />
<glyph unicode="M" horiz-adv-x="747" d="M341 0l-170 569v-569h-81v720h111l180 -606l166 606h110v-720h-84v569l-157 -569h-75z" />
<glyph unicode="N" horiz-adv-x="601" d="M511 720v-720h-111l-229 603v-603h-81v720h114l228 -596v596h79z" />
<glyph unicode="O" horiz-adv-x="658" d="M70 360q0 105 22 176.5t58 115.5t82.5 63.5t96.5 19.5q49 0 96 -19.5t83 -63.5t58 -115.5t22 -176.5t-22 -176.5t-58 -115.5t-83 -63.5t-96 -19.5q-50 0 -96.5 19.5t-82.5 63.5t-58 115.5t-22 176.5zM157 360q0 -153 42.5 -231.5t129.5 -78.5t129.5 78.5t42.5 231.5 t-42.5 231.5t-129.5 78.5t-129.5 -78.5t-42.5 -231.5z" />
<glyph unicode="P" horiz-adv-x="528" d="M244 720q53 0 98.5 -13.5t79 -42t52.5 -72t19 -103.5q0 -59 -20 -101.5t-54.5 -70t-80.5 -40.5t-98 -13h-65v-264h-85v720h154zM175 655v-326h67q79 0 121.5 39t42.5 121q0 78 -42.5 122t-117.5 44h-71z" />
<glyph unicode="Q" horiz-adv-x="658" d="M70 360q0 105 22 176.5t58 115.5t82.5 63.5t96.5 19.5q49 0 96 -19.5t83 -63.5t58 -115.5t22 -176.5q0 -83 -14.5 -146t-39.5 -107t-58.5 -71t-72.5 -38l163 -6v-78l-252 38v34q-48 3 -92 24t-77.5 65t-54 114t-20.5 171zM157 360q0 -153 42.5 -231.5t129.5 -78.5 t129.5 78.5t42.5 231.5t-42.5 231.5t-129.5 78.5t-129.5 -78.5t-42.5 -231.5z" />
<glyph unicode="R" horiz-adv-x="557" d="M441 0l-161 282h-105v-282h-85v720h147q53 0 99 -13t80 -40.5t53.5 -69.5t19.5 -99q0 -41 -10 -72.5t-27 -55.5t-40 -41t-49 -28l179 -301h-101zM175 655v-308h67q72 0 116 37.5t44 113.5t-44 116.5t-119 40.5h-64z" />
<glyph unicode="S" horiz-adv-x="548" d="M277 669q-24 0 -46 -6.5t-38.5 -20t-26.5 -34.5t-10 -49q0 -26 7 -45.5t23.5 -35.5t43.5 -30.5t67 -29.5q39 -15 73.5 -33t60.5 -44.5t41.5 -63.5t15.5 -90q0 -41 -15.5 -78t-43.5 -64.5t-67.5 -43.5t-88.5 -16q-52 0 -91.5 15t-67.5 38.5t-45 52t-24 55.5l79 14 q6 -20 16.5 -39t28 -34t43.5 -24.5t62 -9.5q24 0 47 7.5t41 23t29.5 40t11.5 58.5q0 39 -9.5 63.5t-30 43t-53.5 33.5t-79 34q-81 33 -119.5 80.5t-38.5 116.5q0 38 14 71.5t40 58t63.5 38.5t84.5 14q45 0 80 -13t60.5 -34.5t42.5 -48.5t26 -55l-75 -14q-12 39 -45 69 t-87 30z" />
<glyph unicode="T" horiz-adv-x="475" d="M450 646h-171v-646h-85v646h-169v74h425v-74z" />
<glyph unicode="U" horiz-adv-x="609" d="M170 720v-506q0 -75 31.5 -118t104.5 -43t105 43t32 118v506h81v-497q0 -118 -56.5 -178t-162.5 -60t-163 60t-57 178v497h85z" />
<glyph unicode="V" horiz-adv-x="525" d="M515 720l-194 -720h-114l-197 720h88l167 -659l172 659h78z" />
<glyph unicode="W" horiz-adv-x="759" d="M734 720l-120 -720h-102l-127 624l-131 -624h-109l-120 720h87l95 -626l127 626h109l119 -624l94 624h78z" />
<glyph unicode="X" horiz-adv-x="550" d="M320 375l195 -375h-97l-144 292l-152 -292h-87l197 372l-179 348h95l133 -268l139 268h88z" />
<glyph unicode="Y" horiz-adv-x="512" d="M502 720l-202 -432v-288h-84v288l-206 432h93l157 -344l159 344h83z" />
<glyph unicode="Z" horiz-adv-x="500" d="M129 67h311v-67h-400v75l322 578h-299v67h387v-72z" />
<glyph unicode="[" horiz-adv-x="340" d="M278 -170h-203v980h203v-68h-125v-844h125v-68z" />
<glyph unicode="\" horiz-adv-x="340" d="M65 720h76l209 -810h-76z" />
<glyph unicode="]" horiz-adv-x="340" d="M62 -102h125v844h-125v68h203v-980h-203v68z" />
<glyph unicode="^" horiz-adv-x="500" d="M207 720h90l163 -320h-84l-124 258l-128 -258h-84z" />
<glyph unicode="_" horiz-adv-x="480" d="M-2 -120v68h484v-68h-484z" />
<glyph unicode="`" horiz-adv-x="270" d="M240 598h-71l-139 137h113z" />
<glyph unicode="a" horiz-adv-x="506" d="M372 0l-18 64q-23 -32 -60.5 -53t-97.5 -21q-25 0 -52.5 7.5t-50.5 25t-38 47t-15 74.5t18 77.5t47.5 55t68 35.5t79.5 19l93 14v37q0 23 -5 44t-16.5 36.5t-30.5 24.5t-47 9q-43 0 -71 -24t-37 -60l-79 14q22 57 70.5 93t121.5 36q84 0 129 -46t45 -137v-372h-54z M220 54q40 0 71 16t55 42v176l-72 -12q-72 -12 -111.5 -40.5t-39.5 -85.5q0 -51 27 -73.5t70 -22.5z" />
<glyph unicode="b" horiz-adv-x="528" d="M80 0v735h80v-244q25 30 59 47t79 17q34 0 64 -15t53 -48.5t36.5 -86.5t13.5 -129q0 -140 -52.5 -213t-146.5 -73q-38 0 -65.5 14.5t-46.5 37.5l-9 -42h-65zM265 489q-31 0 -57 -16.5t-48 -39.5v-340q18 -19 40.5 -32t49.5 -13q29 0 53 12.5t41.5 40.5t27 72.5t9.5 107.5 q0 60 -8.5 100t-24 64t-37 34t-46.5 10z" />
<glyph unicode="c" horiz-adv-x="509" d="M277 490q-27 0 -51 -12t-41.5 -38.5t-27.5 -68.5t-10 -103t10.5 -102t27.5 -66t40 -35.5t49 -10.5q25 0 45 8.5t34 23t22.5 33t12.5 39.5l81 -10q-7 -29 -22 -57t-39.5 -50.5t-58.5 -36.5t-77 -14q-35 0 -72 12.5t-67.5 44t-50 86t-19.5 138.5q0 77 18.5 131t48.5 88 t68 49.5t77 15.5q45 0 78 -14t56.5 -36t37 -49.5t19.5 -54.5l-80 -12q-10 45 -34 73t-75 28z" />
<glyph unicode="d" horiz-adv-x="533" d="M63 271q0 140 54 212t148 72q35 0 61.5 -11.5t46.5 -31.5v223h80v-735h-58l-17 61q-25 -34 -61 -52.5t-84 -18.5q-34 0 -64.5 15.5t-54 49t-37.5 87t-14 129.5zM266 56q31 0 57.5 17t49.5 41v341q-19 17 -42 29t-50 12q-29 0 -53.5 -12t-42.5 -39.5t-28 -71.5t-10 -107 q0 -60 9 -100t25 -64.5t37.5 -35t47.5 -10.5z" />
<glyph unicode="e" horiz-adv-x="534" d="M282 54q25 0 44.5 7.5t33.5 19.5t23.5 27t14.5 30l70 -15q-9 -26 -25.5 -50t-40 -42.5t-55 -29.5t-70.5 -11q-38 0 -76 13.5t-69 45.5t-50 86t-19 135q0 82 18.5 136.5t48 87.5t66.5 47t75 14q103 0 155.5 -71t52.5 -227h-334q1 -63 13 -102.5t31 -62t43 -30.5t50 -8z M276 495q-52 0 -87 -41.5t-43 -135.5h252q-2 87 -33.5 132t-88.5 45z" />
<glyph unicode="f" horiz-adv-x="299" d="M319 667q-19 5 -38 7t-34 2q-33 0 -50 -15t-17 -50v-71h116v-65h-116v-475h-80v475h-80v65h80v65q0 29 7.5 54t23.5 44t40.5 29.5t59.5 10.5q50 0 88 -11v-65z" />
<glyph unicode="g" horiz-adv-x="508" d="M468 528l-121 5q42 -20 69.5 -59.5t27.5 -102.5q0 -47 -17.5 -81.5t-45.5 -57t-63 -33.5t-69 -11q-47 0 -92 19q-16 -13 -16 -33q0 -9 1.5 -18.5t12 -17.5t32.5 -14t63 -9q51 -3 92 -12.5t70.5 -27.5t45.5 -46.5t16 -70.5q0 -31 -14.5 -59t-43 -49.5t-71.5 -34 t-100 -12.5q-99 0 -152 39t-53 103q0 45 21.5 74.5t56.5 47.5q-25 14 -34.5 33.5t-9.5 42.5q0 29 14.5 49.5t36.5 32.5q-32 23 -53 59t-21 87q0 52 19.5 87.5t48.5 57t64 30.5t67 9q23 0 43 -4v31l175 20v-74zM131 371q0 -57 32 -91t86 -34t84.5 34t30.5 91q0 60 -31 93 t-85 33t-85.5 -34.5t-31.5 -91.5zM220 41q-14 1 -27.5 2.5t-26.5 5.5q-20 -17 -33 -38.5t-13 -52.5q0 -19 6 -37t20.5 -32t38 -22.5t59.5 -8.5q43 0 71 9t44.5 23t23 31t6.5 32q0 19 -6.5 33.5t-24.5 25.5t-51 18t-87 11z" />
<glyph unicode="h" horiz-adv-x="548" d="M80 0v735h80v-258q32 42 71.5 60t76.5 18q79 0 119.5 -49.5t40.5 -155.5v-350h-80v354q0 73 -24.5 104.5t-78.5 31.5q-37 0 -68.5 -22t-56.5 -52v-416h-80z" />
<glyph unicode="i" horiz-adv-x="240" d="M74 638v97h92v-97h-92zM80 0v540h80v-540h-80z" />
<glyph unicode="j" horiz-adv-x="240" d="M74 638v97h92v-97h-92zM-44 -89q13 -3 29.5 -5.5t28.5 -2.5q35 0 50.5 17t15.5 66v554h80v-564q0 -62 -31 -100.5t-99 -38.5q-16 0 -36.5 3t-37.5 8v63z" />
<glyph unicode="k" horiz-adv-x="505" d="M80 0v735h80v-420l198 225h104l-215 -235l248 -305h-100l-235 285v-285h-80z" />
<glyph unicode="l" horiz-adv-x="240" d="M80 735h80v-735h-80v735z" />
<glyph unicode="m" horiz-adv-x="825" d="M80 0v540h58l14 -64q32 43 73.5 61t76.5 18q100 0 132 -86q30 47 73.5 66.5t87.5 19.5q76 0 113 -49.5t37 -155.5v-350h-80v354q0 73 -21 104.5t-72 31.5q-39 0 -70 -22.5t-54 -53.5q2 -14 3 -30.5t1 -33.5v-350h-80v354q0 73 -21 104.5t-72 31.5q-37 0 -66.5 -20.5 t-52.5 -49.5v-420h-80z" />
<glyph unicode="n" horiz-adv-x="548" d="M80 0v540h58l15 -66q33 44 76 62.5t79 18.5q79 0 119.5 -49.5t40.5 -155.5v-350h-80v354q0 73 -24.5 104.5t-78.5 31.5q-38 0 -69 -21.5t-56 -51.5v-417h-80z" />
<glyph unicode="o" horiz-adv-x="565" d="M63 270q0 83 20 138t51.5 87.5t71 46t77.5 13.5t77 -13t70.5 -45.5t51.5 -87.5t20 -139t-20 -138t-51.5 -85.5t-70.5 -44t-77 -12.5t-77.5 12.5t-71 44.5t-51.5 86t-20 137zM147 270q0 -114 37.5 -166.5t99.5 -52.5q63 0 99 51.5t36 167.5q0 115 -38 169.5t-98 54.5 q-59 0 -97.5 -55t-38.5 -169z" />
<glyph unicode="p" horiz-adv-x="528" d="M80 -170v710h58l14 -55q25 34 61.5 52t84.5 18q34 0 64 -15t53 -48.5t36.5 -86.5t13.5 -129q0 -140 -52.5 -213t-146.5 -73q-69 0 -106 42v-202h-80zM265 489q-31 0 -57 -16.5t-48 -39.5v-344q17 -17 39 -29t51 -12t53 12.5t41.5 40.5t27 72.5t9.5 107.5q0 60 -8.5 100 t-24 64t-37 34t-46.5 10z" />
<glyph unicode="q" horiz-adv-x="548" d="M63 269q0 140 54 213t148 73q45 0 77 -19.5t52 -51.5l19 56h55v-710h-80v241q-25 -38 -62.5 -59.5t-92.5 -21.5q-34 0 -64.5 15t-54 48.5t-37.5 86.5t-14 129zM266 56q36 0 67 22.5t55 51.5v309q-20 21 -46.5 39t-60.5 18q-29 0 -53.5 -12.5t-42.5 -40t-28 -72 t-10 -107.5q0 -60 9 -100t25 -64t37.5 -34t47.5 -10z" />
<glyph unicode="r" horiz-adv-x="332" d="M80 0v540h58l18 -79q38 92 119 92q11 0 21 -1t16 -3v-78q-9 2 -18 3.5t-21 1.5q-20 0 -37 -8.5t-31 -23t-25 -34t-20 -40.5v-370h-80z" />
<glyph unicode="s" horiz-adv-x="457" d="M223 -10q-70 0 -118.5 31t-69.5 82l75 22q14 -32 44.5 -50.5t70.5 -18.5t70 22.5t30 67.5q0 26 -12 44t-31.5 30t-44 20.5t-49.5 16.5q-72 22 -103.5 57.5t-31.5 89.5q0 37 14 65t38 47t55 29t65 10q36 0 64.5 -9t50 -25t36.5 -36.5t23 -43.5l-72 -22q-9 31 -33.5 52.5 t-69.5 21.5q-18 0 -34 -5t-29 -14.5t-20.5 -24.5t-7.5 -36t8 -35.5t24 -25t41 -19t58 -18.5q66 -20 104 -57.5t38 -103.5q0 -37 -13 -67t-37 -51.5t-58 -33.5t-75 -12z" />
<glyph unicode="t" horiz-adv-x="329" d="M299 5q-18 -5 -35 -8t-40 -3q-66 0 -95 38t-29 101v342h-80v65h81l6 130h73v-130h116v-65h-116v-344q0 -35 13 -52.5t44 -17.5q15 0 29 2t33 7v-65z" />
<glyph unicode="u" horiz-adv-x="536" d="M160 540v-354q0 -39 7 -64t20.5 -40t31.5 -21t41 -6q40 0 68 19.5t48 50.5v415h80v-540h-55l-18 68q-26 -40 -61.5 -59t-77.5 -19q-75 0 -119.5 47t-44.5 151v352h80z" />
<glyph unicode="v" horiz-adv-x="465" d="M455 540l-164 -540h-119l-162 540h86l137 -486l141 486h81z" />
<glyph unicode="w" horiz-adv-x="720" d="M700 540l-132 -540h-100l-107 450l-106 -450h-103l-132 540h82l104 -455l106 455h103l105 -453l101 453h79z" />
<glyph unicode="x" horiz-adv-x="500" d="M290 289l190 -289h-98l-139 222l-138 -222h-85l181 284l-168 256h96l119 -191l117 191h82z" />
<glyph unicode="y" horiz-adv-x="458" d="M292 -14q-11 -37 -22 -65t-26.5 -46.5t-38.5 -28t-59 -9.5q-29 0 -65 9v63q17 -4 32 -6t31 -2q36 0 50 24t26 75h-38l-172 540h85l144 -487l133 487h76z" />
<glyph unicode="z" horiz-adv-x="449" d="M127 69h262v-69h-349v82l276 390h-257v68h340v-82z" />
<glyph unicode="{" horiz-adv-x="340" d="M34 358q36 0 57.5 20t21.5 68v197q0 85 42.5 126t141.5 41v-60q-60 0 -84.5 -19.5t-24.5 -72.5v-190q0 -66 -20.5 -99.5t-58.5 -47.5q38 -14 58.5 -48t20.5 -100v-191q0 -53 24.5 -72.5t84.5 -19.5v-60q-99 0 -141.5 41t-42.5 126v198q0 48 -21.5 68t-57.5 20v75z" />
<glyph unicode="|" horiz-adv-x="320" d="M201 800v-920h-82v920h82z" />
<glyph unicode="}" horiz-adv-x="340" d="M306 283q-36 0 -57.5 -20t-21.5 -68v-198q0 -85 -42.5 -126t-141.5 -41v60q60 0 84.5 19.5t24.5 72.5v191q0 66 20.5 100t58.5 48q-38 14 -58.5 47.5t-20.5 99.5v190q0 53 -24.5 72.5t-84.5 19.5v60q99 0 141.5 -41t42.5 -126v-197q0 -48 21.5 -68t57.5 -20v-75z" />
<glyph unicode="~" horiz-adv-x="560" d="M184 309q-36 0 -61.5 -12t-47.5 -31v78q19 15 52 27.5t68 12.5q31 0 54 -8.5t43 -18t39.5 -18t43.5 -8.5q36 0 62 12t48 31v-78q-19 -15 -52 -27.5t-68 -12.5q-31 0 -54 8.5t-43.5 18t-40 18t-43.5 8.5z" />
<glyph unicode="&#xa1;" horiz-adv-x="270" d="M172 300l10 -480h-90l10 480h70zM185 540v-100h-100v100h100z" />
<glyph unicode="&#xa2;" d="M244 -7q-33 4 -64.5 20t-57 48t-41 83.5t-15.5 126.5q0 68 15 118.5t39.5 84.5t56.5 53t67 25v138h72v-138q36 -6 62 -21t44 -36t29.5 -45.5t17.5 -48.5l-80 -12q-10 45 -34 73t-75 28q-27 0 -51 -12t-41.5 -38.5t-27.5 -68.5t-10 -103t10.5 -102t27.5 -66t40 -35.5 t49 -10.5q25 0 45 8.5t34 23t22.5 33t12.5 39.5l81 -10q-6 -26 -18.5 -51t-32 -46t-45.5 -36t-60 -21v-129h-72v128z" />
<glyph unicode="&#xa3;" d="M427 354h-196v-182q0 -37 -12 -63.5t-38 -42.5h291v-66h-412v66h7q35 2 58 25.5t23 74.5v188h-78v60h78v85q0 55 15 95t39.5 66t57 38t68.5 12q70 0 111.5 -35.5t56.5 -89.5l-76 -18q-7 35 -27.5 58t-63.5 23q-45 0 -71.5 -33.5t-26.5 -115.5v-85h196v-60z" />
<glyph unicode="&#xa4;" horiz-adv-x="600" d="M105 191q-19 28 -30 64.5t-11 84.5q0 45 10 81.5t28 65.5l-61 62l48 48l58 -58q33 28 73 41.5t79 13.5t79 -14t73 -43l60 60l48 -48l-64 -64q17 -29 27.5 -64.5t10.5 -80.5q0 -48 -10.5 -83.5t-29.5 -64.5l66 -65l-48 -48l-63 63q-33 -26 -72 -38.5t-77 -12.5t-77 12 t-71 38l-62 -62l-48 48zM134 340q0 -91 46.5 -139.5t119.5 -48.5t118 48.5t45 139.5q0 45 -12 80.5t-33.5 60t-52 38t-66.5 13.5t-66.5 -13.5t-52.5 -38t-34 -60t-12 -80.5z" />
<glyph unicode="&#xa5;" d="M236 0v140h-156v60h156v80h-156v59h129l-173 361h90l149 -342l151 342h82l-171 -360h123v-60h-149v-80h149v-60h-149v-140h-75z" />
<glyph unicode="&#xa6;" horiz-adv-x="320" d="M201 800v-380h-82v380h82zM201 260v-380h-82v380h82z" />
<glyph unicode="&#xa7;" d="M81 308q0 46 24 77t62 49q-27 17 -46 48t-19 79q0 37 14.5 64.5t39 46.5t56 28.5t65.5 9.5q33 0 61.5 -9t50.5 -25t37.5 -36.5t23.5 -43.5l-67 -21q-9 31 -36.5 53t-72.5 22q-18 0 -35 -5t-30.5 -14.5t-21.5 -24.5t-8 -36q0 -45 32 -68t93 -38q69 -17 112 -56t43 -106 q0 -48 -24.5 -78.5t-62.5 -48.5q28 -17 47 -47.5t19 -78.5q0 -37 -15 -65t-39.5 -46.5t-56 -28t-65.5 -9.5q-33 0 -61 9t-50.5 25t-38 36.5t-23.5 43.5l67 21q9 -31 37 -53t73 -22q18 0 35 5t30.5 14.5t21.5 24.5t8 36q0 45 -32 68t-93 38q-69 17 -112 56t-43 106zM160 316 q0 -29 11.5 -48t31 -31t45.5 -20t56 -16q30 9 53 32t23 61q0 29 -11.5 47.5t-31 30.5t-46 20.5t-55.5 16.5q-30 -10 -53 -32.5t-23 -60.5z" />
<glyph unicode="&#xa8;" horiz-adv-x="360" d="M30 635v90h95v-90h-95zM235 635v90h95v-90h-95z" />
<glyph unicode="&#xa9;" horiz-adv-x="843" d="M426 207q35 0 49.5 20.5t20.5 47.5l63 -9q-5 -23 -15.5 -43t-27.5 -35t-41 -24t-55 -9q-23 0 -47.5 8.5t-45.5 31.5t-34.5 63t-13.5 103q0 62 13.5 102t34.5 63t47 32t50 9q30 0 52 -9t37.5 -24t25 -34t14.5 -39l-64 -9q-6 25 -19.5 44.5t-46.5 19.5q-15 0 -28.5 -7.5 t-24.5 -25.5t-17.5 -47.5t-6.5 -74.5t7 -74.5t18.5 -47t25.5 -25t29 -7.5zM783 360q0 -99 -32 -169.5t-83.5 -116.5t-116.5 -67.5t-130 -21.5t-130 21.5t-116.5 67.5t-83.5 116.5t-32 169.5t32 169.5t83.5 116.5t116.5 67.5t130 21.5t130 -21.5t116.5 -67.5t83.5 -116.5 t32 -169.5zM715 360q0 81 -25 141.5t-66 100t-94 59.5t-109 20t-109 -20t-94 -59.5t-66 -100t-25 -141.5t25 -141.5t66 -100t94 -59.5t109 -20t109 20t94 59.5t66 100t25 141.5z" />
<glyph unicode="&#xaa;" horiz-adv-x="475" d="M343 318l-19 49q-20 -25 -49.5 -40t-72.5 -15q-54 0 -90 29.5t-36 80.5q0 39 14.5 65t37 42.5t50 24.5t53.5 11l84 11v36q0 12 -4 24.5t-12 22.5t-21 16.5t-32 6.5q-24 0 -45.5 -14.5t-30.5 -41.5l-74 9q14 42 54 71t103 29q61 0 101 -34t40 -103v-280h-51zM95 0v70h305 v-70h-305zM233 366q27 0 47 11.5t35 28.5v120l-58 -8q-46 -6 -74 -24.5t-28 -61.5q0 -20 7.5 -32.5t18.5 -20t25 -10.5t27 -3z" />
<glyph unicode="&#xab;" horiz-adv-x="490" d="M60 326l117 205h64l-92 -208l82 -222h-64zM239 326l117 205h64l-92 -208l82 -222h-64z" />
<glyph unicode="&#xac;" d="M402 141v147h-337v70h410v-217h-73z" />
<glyph unicode="&#xad;" horiz-adv-x="425" d="M60 287v72h305v-72h-305z" />
<glyph unicode="&#xae;" horiz-adv-x="614" d="M544 493q0 -65 -22 -111t-56.5 -75t-76.5 -42.5t-82 -13.5t-82 13.5t-76.5 42.5t-56.5 75t-22 111t22 111t56.5 75t76.5 42.5t82 13.5t82 -13.5t76.5 -42.5t56.5 -75t22 -111zM485 493q0 52 -15 89t-40 60t-57 33.5t-66 10.5t-66 -10.5t-57 -33.5t-40 -60t-15 -89 q0 -53 15 -89.5t40 -59.5t57 -33.5t66 -10.5t66 10.5t57 33.5t40 59.5t15 89.5zM349 367l-50 93h-17v-93h-50v255h74q38 0 64 -20t26 -59q0 -26 -12.5 -44t-33.5 -28l57 -104h-58zM282 582v-81h23q17 0 27.5 11.5t10.5 30.5q0 18 -10.5 28.5t-29.5 10.5h-21z" />
<glyph unicode="&#xaf;" horiz-adv-x="330" d="M30 646v69h270v-69h-270z" />
<glyph unicode="&#xb0;" horiz-adv-x="355" d="M40 566q0 35 11.5 62t30.5 45t44 27.5t52 9.5t52 -9.5t44 -27.5t30 -45t11 -62t-11 -61.5t-30 -44.5t-44 -27t-52 -9t-52 9t-44 27t-30.5 44.5t-11.5 61.5zM108 566q0 -42 18.5 -66t51.5 -24t51.5 24t18.5 66t-18.5 67t-51.5 25t-51.5 -25t-18.5 -67z" />
<glyph unicode="&#xb1;" d="M231 288h-166v70h166v163h78v-163h166v-70h-166v-146h-78v146zM65 0v70h410v-70h-410z" />
<glyph unicode="&#xb2;" horiz-adv-x="340" d="M169 754q-24 0 -39 -16.5t-19 -35.5l-71 10q11 42 46 70t89 28q25 0 47.5 -6.5t39.5 -20.5t27.5 -36t10.5 -53q0 -38 -25.5 -70.5t-57.5 -64.5l-79 -79h160v-60h-251v60l132 134q16 16 30.5 37.5t14.5 45.5q0 21 -12 39t-43 18z" />
<glyph unicode="&#xb3;" horiz-adv-x="340" d="M167 469q31 0 45.5 18.5t14.5 48.5q0 37 -20 48t-47 11h-13v51h18q22 0 37 14.5t15 43.5q0 20 -14 35t-39 15q-24 0 -39 -14.5t-20 -38.5l-69 9q12 48 50 74t85 26q21 0 42.5 -6t38.5 -19t27.5 -33t10.5 -47q0 -26 -15 -48t-46 -32q14 -3 27.5 -10t24 -18t16.5 -27.5 t6 -38.5q0 -29 -10.5 -50.5t-29 -36.5t-43 -22.5t-52.5 -7.5q-53 0 -88.5 29.5t-43.5 70.5l71 9q4 -20 18.5 -37t41.5 -17z" />
<glyph unicode="&#xb4;" horiz-adv-x="270" d="M127 735h113l-140 -137h-70z" />
<glyph unicode="&#xb5;" horiz-adv-x="536" d="M160 540v-354q0 -39 7 -64.5t20.5 -40t31.5 -20.5t41 -6q42 0 69 20t47 51v414h80v-540h-55l-17 65q-23 -40 -55.5 -57.5t-74.5 -17.5q-29 0 -53 11t-41 28v-199h-80v710h80z" />
<glyph unicode="&#xb6;" horiz-adv-x="550" d="M211 0v375q-19 0 -44.5 3.5t-48.5 19.5t-39 48.5t-16 90.5q0 55 16 87t39 49t48.5 22t44.5 5h76v-700h-76zM450 700v-700h-76v700h76z" />
<glyph unicode="&#xb7;" horiz-adv-x="315" d="M107 273v100h100v-100h-100z" />
<glyph unicode="&#xb8;" horiz-adv-x="279" d="M249 -142q0 -45 -33 -72t-84 -27q-29 0 -56 7t-46 18l30 45q11 -5 27.5 -9t31.5 -4q23 0 41 9.5t18 36.5q0 24 -25.5 34.5t-62.5 15.5l20 108h62l-5 -71q42 -9 62 -34t20 -57z" />
<glyph unicode="&#xb9;" horiz-adv-x="340" d="M54 420v62h92v246l-95 -56v73l91 55h73v-318h74v-62h-235z" />
<glyph unicode="&#xba;" horiz-adv-x="475" d="M70 521q0 59 14 100t37 66.5t53.5 36.5t63.5 11t63 -11t53.5 -36.5t37 -66.5t13.5 -100t-13.5 -99.5t-36.5 -65t-53.5 -35t-63.5 -10.5t-63.5 10.5t-54 35t-37 65t-13.5 99.5zM150 521q0 -81 25.5 -117.5t63.5 -36.5t62.5 36.5t24.5 117.5t-24.5 119t-63.5 38t-63.5 -38 t-24.5 -119zM87 0v70h303v-70h-303z" />
<glyph unicode="&#xbb;" horiz-adv-x="490" d="M323 101h-64l82 222l-92 208h64l117 -205zM144 101h-64l82 222l-92 208h64l117 -205z" />
<glyph unicode="&#xbc;" horiz-adv-x="840" d="M79 321v62h92v246l-95 -56v73l91 55h73v-318h74v-62h-235zM707 241v-111h56v-58h-56v-71h-66v71h-147v62l84 247h71l-88 -251h82l11 111h53zM244 -100h-86l467 910h86z" />
<glyph unicode="&#xbd;" horiz-adv-x="840" d="M639 335q-24 0 -39 -16.5t-19 -35.5l-71 10q11 42 46 70t89 28q25 0 47.5 -6.5t39.5 -20.5t27.5 -36t10.5 -53q0 -38 -25.5 -70.5t-57.5 -64.5l-79 -79h160v-60h-251v60l132 134q16 16 30.5 37.5t14.5 45.5q0 21 -12 39t-43 18zM72 321v62h92v246l-95 -56v73l91 55h73 v-318h74v-62h-235zM237 -100h-86l467 910h86z" />
<glyph unicode="&#xbe;" horiz-adv-x="840" d="M205 370q31 0 45.5 18.5t14.5 48.5q0 37 -20 48t-47 11h-13v51h18q22 0 37 14.5t15 43.5q0 20 -14 35t-39 15q-24 0 -39 -14.5t-20 -38.5l-69 9q12 48 50 74t85 26q21 0 42.5 -6t38.5 -19t27.5 -33t10.5 -47q0 -26 -15 -48t-46 -32q14 -3 27.5 -10t24 -18t16.5 -27.5 t6 -38.5q0 -29 -10.5 -50.5t-29 -36.5t-43 -22.5t-52.5 -7.5q-53 0 -88.5 29.5t-43.5 70.5l71 9q4 -20 18.5 -37t41.5 -17zM710 241v-111h56v-58h-56v-71h-66v71h-147v62l84 247h71l-88 -251h82l11 111h53zM247 -100h-86l467 910h86z" />
<glyph unicode="&#xbf;" horiz-adv-x="484" d="M235 -130q45 0 76.5 29.5t38.5 74.5l79 -12q-9 -36 -27.5 -65t-44.5 -49.5t-58 -31.5t-67 -11q-81 0 -129 42.5t-48 120.5q0 36 10.5 62t26 47t34 37.5t34 33.5t26 35.5t10.5 43.5v93h82v-107q0 -28 -10.5 -49.5t-26 -40t-33.5 -35t-33.5 -34.5t-26 -39.5t-10.5 -48.5 q0 -18 5.5 -35.5t17 -31t30 -21.5t44.5 -8zM287 540v-105h-105v105h105z" />
<glyph unicode="&#xc0;" horiz-adv-x="553" d="M453 0l-52 187h-254l-53 -187h-84l216 720h102l215 -720h-90zM165 252h218l-107 390zM344 768h-72l-142 117h119z" />
<glyph unicode="&#xc1;" horiz-adv-x="553" d="M453 0l-52 187h-254l-53 -187h-84l216 720h102l215 -720h-90zM165 252h218l-107 390zM304 885h119l-142 -117h-72z" />
<glyph unicode="&#xc2;" horiz-adv-x="553" d="M453 0l-52 187h-254l-53 -187h-84l216 720h102l215 -720h-90zM165 252h218l-107 390zM434 768h-90l-68 51l-68 -51h-90l119 117h78z" />
<glyph unicode="&#xc3;" horiz-adv-x="553" d="M453 0l-52 187h-254l-53 -187h-84l216 720h102l215 -720h-90zM165 252h218l-107 390zM338 768q-24 0 -39.5 6t-27.5 13t-24 13t-29 6t-40 -10t-45 -27v71q22 16 45 25t44 9q24 0 39.5 -6t27.5 -13t24 -13t29 -6t38 10t43 27v-71q-22 -16 -43 -25t-42 -9z" />
<glyph unicode="&#xc4;" horiz-adv-x="553" d="M453 0l-52 187h-254l-53 -187h-84l216 720h102l215 -720h-90zM165 252h218l-107 390zM127 785v90h95v-90h-95zM332 785v90h95v-90h-95z" />
<glyph unicode="&#xc5;" horiz-adv-x="553" d="M160 806q0 54 33.5 84t84.5 30t84 -28.5t33 -85.5q0 -38 -17 -63.5t-46 -38.5l211 -704h-90l-52 187h-254l-53 -187h-84l211 705q-28 13 -44.5 38.5t-16.5 62.5zM165 252h218l-107 390zM223 806q0 -30 15 -46.5t40 -16.5t39.5 16.5t14.5 46.5t-14.5 47.5t-39.5 17.5 t-40 -17.5t-15 -47.5z" />
<glyph unicode="&#xc6;" horiz-adv-x="820" d="M760 0h-303l-40 187h-256l-67 -187h-84l275 720h440v-65h-328l58 -258h265v-64h-251l59 -268h232v-65zM185 252h218l-80 382z" />
<glyph unicode="&#xc7;" horiz-adv-x="582" d="M423 -142q0 -45 -33 -72t-84 -27q-29 0 -56 7t-46 18l30 47q11 -5 27.5 -9t31.5 -4q23 0 41 8.5t18 35.5q0 24 -25.5 34.5t-62.5 15.5l14 76q-37 6 -74 27t-67 64t-48.5 111.5t-18.5 169.5q0 112 23 185t59 115t80.5 58.5t87.5 16.5q47 0 82.5 -14.5t60.5 -37.5t41 -52 t24 -57l-82 -11q-15 48 -44.5 76.5t-81.5 28.5q-34 0 -63.5 -14.5t-51.5 -50t-34.5 -94.5t-12.5 -149q0 -89 13 -148t34.5 -94t50.5 -50t62 -15q54 0 86.5 29t49.5 83l83 -8q-23 -72 -69 -117.5t-125 -53.5l-2 -37q42 -9 62 -34t20 -57z" />
<glyph unicode="&#xc8;" horiz-adv-x="500" d="M410 333h-235v-265h265v-68h-350v720h350v-68h-265v-253h235v-66zM332 768h-72l-142 117h119z" />
<glyph unicode="&#xc9;" horiz-adv-x="500" d="M410 333h-235v-265h265v-68h-350v720h350v-68h-265v-253h235v-66zM286 888h119l-142 -117h-72z" />
<glyph unicode="&#xca;" horiz-adv-x="500" d="M410 333h-235v-265h265v-68h-350v720h350v-68h-265v-253h235v-66zM424 768h-90l-68 51l-68 -51h-90l119 117h78z" />
<glyph unicode="&#xcb;" horiz-adv-x="500" d="M410 333h-235v-265h265v-68h-350v720h350v-68h-265v-253h235v-66zM116 785v90h95v-90h-95zM321 785v90h95v-90h-95z" />
<glyph unicode="&#xcc;" horiz-adv-x="265" d="M175 720v-720h-85v720h85zM210 768h-72l-142 117h119z" />
<glyph unicode="&#xcd;" horiz-adv-x="265" d="M175 720v-720h-85v720h85zM151 885h119l-142 -117h-72z" />
<glyph unicode="&#xce;" horiz-adv-x="265" d="M175 720v-720h-85v720h85zM291 768h-90l-68 51l-68 -51h-90l119 117h78z" />
<glyph unicode="&#xcf;" horiz-adv-x="265" d="M175 720v-720h-85v720h85zM-16 785v90h95v-90h-95zM189 785v90h95v-90h-95z" />
<glyph unicode="&#xd0;" horiz-adv-x="621" d="M100 351h-70v65h70v304h147q53 0 107 -14t98 -53.5t71.5 -110t27.5 -182.5q0 -113 -30.5 -183t-76 -109.5t-99 -53.5t-99.5 -14h-146v351zM185 351v-285h66q39 0 77.5 11.5t68.5 43.5t49 89.5t19 149.5t-20 150t-51.5 90.5t-69.5 44.5t-75 12h-64v-241h184v-65h-184z" />
<glyph unicode="&#xd1;" horiz-adv-x="601" d="M511 720v-720h-111l-229 603v-603h-81v720h114l228 -596v596h79zM364 772q-24 0 -39.5 6t-27.5 13t-24 13t-29 6t-40 -10t-45 -27v71q22 16 45 25t44 9q24 0 39.5 -6t27.5 -13t24 -13t29 -6t38 10t43 27v-71q-22 -16 -43 -25t-42 -9z" />
<glyph unicode="&#xd2;" horiz-adv-x="658" d="M70 360q0 105 22 176.5t58 115.5t82.5 63.5t96.5 19.5q49 0 96 -19.5t83 -63.5t58 -115.5t22 -176.5t-22 -176.5t-58 -115.5t-83 -63.5t-96 -19.5q-50 0 -96.5 19.5t-82.5 63.5t-58 115.5t-22 176.5zM157 360q0 -153 42.5 -231.5t129.5 -78.5t129.5 78.5t42.5 231.5 t-42.5 231.5t-129.5 78.5t-129.5 -78.5t-42.5 -231.5zM386 768h-72l-142 117h119z" />
<glyph unicode="&#xd3;" horiz-adv-x="658" d="M70 360q0 105 22 176.5t58 115.5t82.5 63.5t96.5 19.5q49 0 96 -19.5t83 -63.5t58 -115.5t22 -176.5t-22 -176.5t-58 -115.5t-83 -63.5t-96 -19.5q-50 0 -96.5 19.5t-82.5 63.5t-58 115.5t-22 176.5zM157 360q0 -153 42.5 -231.5t129.5 -78.5t129.5 78.5t42.5 231.5 t-42.5 231.5t-129.5 78.5t-129.5 -78.5t-42.5 -231.5zM365 885h119l-142 -117h-72z" />
<glyph unicode="&#xd4;" horiz-adv-x="658" d="M70 360q0 105 22 176.5t58 115.5t82.5 63.5t96.5 19.5q49 0 96 -19.5t83 -63.5t58 -115.5t22 -176.5t-22 -176.5t-58 -115.5t-83 -63.5t-96 -19.5q-50 0 -96.5 19.5t-82.5 63.5t-58 115.5t-22 176.5zM157 360q0 -153 42.5 -231.5t129.5 -78.5t129.5 78.5t42.5 231.5 t-42.5 231.5t-129.5 78.5t-129.5 -78.5t-42.5 -231.5zM487 768h-90l-68 51l-68 -51h-90l119 117h78z" />
<glyph unicode="&#xd5;" horiz-adv-x="658" d="M70 360q0 105 22 176.5t58 115.5t82.5 63.5t96.5 19.5q49 0 96 -19.5t83 -63.5t58 -115.5t22 -176.5t-22 -176.5t-58 -115.5t-83 -63.5t-96 -19.5q-50 0 -96.5 19.5t-82.5 63.5t-58 115.5t-22 176.5zM157 360q0 -153 42.5 -231.5t129.5 -78.5t129.5 78.5t42.5 231.5 t-42.5 231.5t-129.5 78.5t-129.5 -78.5t-42.5 -231.5zM389 770q-24 0 -39.5 6t-27.5 13t-24 13t-29 6t-40 -10t-45 -27v71q22 16 45 25t44 9q24 0 39.5 -6t27.5 -13t24 -13t29 -6t38 10t43 27v-71q-22 -16 -43 -25t-42 -9z" />
<glyph unicode="&#xd6;" horiz-adv-x="658" d="M70 360q0 105 22 176.5t58 115.5t82.5 63.5t96.5 19.5q49 0 96 -19.5t83 -63.5t58 -115.5t22 -176.5t-22 -176.5t-58 -115.5t-83 -63.5t-96 -19.5q-50 0 -96.5 19.5t-82.5 63.5t-58 115.5t-22 176.5zM157 360q0 -153 42.5 -231.5t129.5 -78.5t129.5 78.5t42.5 231.5 t-42.5 231.5t-129.5 78.5t-129.5 -78.5t-42.5 -231.5zM178 785v90h95v-90h-95zM383 785v90h95v-90h-95z" />
<glyph unicode="&#xd7;" d="M270 267l-136 -136l-54 54l136 136l-136 136l54 54l136 -136l136 136l54 -54l-136 -136l136 -136l-54 -54z" />
<glyph unicode="&#xd8;" horiz-adv-x="658" d="M70 360q0 105 22 176.5t58 115.5t82.5 63.5t96.5 19.5q25 0 49.5 -4.5t47.5 -15.5l39 105h70l-52 -141q47 -42 76 -119.5t29 -199.5q0 -105 -22 -176.5t-58 -115.5t-83 -63.5t-96 -19.5q-52 0 -96 19l-39 -106h-70l52 142q-47 42 -76.5 119.5t-29.5 200.5zM157 360 q0 -170 52 -246l194 536q-32 20 -74 20q-87 0 -129.5 -78.5t-42.5 -231.5zM501 360q0 165 -52 244l-195 -534q35 -20 75 -20q87 0 129.5 78.5t42.5 231.5z" />
<glyph unicode="&#xd9;" horiz-adv-x="609" d="M170 720v-506q0 -75 31.5 -118t104.5 -43t105 43t32 118v506h81v-497q0 -118 -56.5 -178t-162.5 -60t-163 60t-57 178v497h85zM363 768h-72l-142 117h119z" />
<glyph unicode="&#xda;" horiz-adv-x="609" d="M170 720v-506q0 -75 31.5 -118t104.5 -43t105 43t32 118v506h81v-497q0 -118 -56.5 -178t-162.5 -60t-163 60t-57 178v497h85zM344 885h119l-142 -117h-72z" />
<glyph unicode="&#xdb;" horiz-adv-x="609" d="M170 720v-506q0 -75 31.5 -118t104.5 -43t105 43t32 118v506h81v-497q0 -118 -56.5 -178t-162.5 -60t-163 60t-57 178v497h85zM463 766h-90l-68 51l-68 -51h-90l119 117h78z" />
<glyph unicode="&#xdc;" horiz-adv-x="609" d="M170 720v-506q0 -75 31.5 -118t104.5 -43t105 43t32 118v506h81v-497q0 -118 -56.5 -178t-162.5 -60t-163 60t-57 178v497h85zM156 785v90h95v-90h-95zM361 785v90h95v-90h-95z" />
<glyph unicode="&#xdd;" horiz-adv-x="512" d="M502 720l-202 -432v-288h-84v288l-206 432h93l157 -344l159 344h83zM308 885h119l-142 -117h-72z" />
<glyph unicode="&#xde;" horiz-adv-x="563" d="M175 720v-124h69q53 0 98.5 -13.5t79 -42t52.5 -73t19 -106.5q0 -61 -20 -104.5t-54.5 -71t-80.5 -40.5t-98 -13h-65v-132h-85v720h85zM175 531v-334h67q79 0 121.5 38t42.5 126q0 85 -42.5 127.5t-117.5 42.5h-71z" />
<glyph unicode="&#xdf;" horiz-adv-x="574" d="M529 160q0 -43 -13.5 -75t-37 -53t-54 -31.5t-63.5 -10.5q-32 0 -57 7t-44.5 18.5t-33 25.5t-21.5 28l70 32q10 -17 31.5 -31.5t54.5 -14.5q18 0 34 6.5t28.5 19t20 31.5t7.5 43q0 22 -7 38t-18.5 29t-27 23t-33.5 20q-20 11 -38.5 23.5t-32.5 28.5t-22.5 36t-8.5 46 q0 29 8.5 49.5t22.5 35t32 23.5t37 15q5 16 7.5 31t2.5 39q0 39 -26.5 65.5t-74.5 26.5q-54 0 -83 -36t-29 -96v-552h-80v533q0 52 14 92t39.5 66.5t61 40t77.5 13.5q81 0 125.5 -42.5t44.5 -115.5q0 -17 -3.5 -47.5t-20.5 -63.5q-36 -6 -57.5 -21.5t-21.5 -45.5 q0 -15 4.5 -26t15 -21t27.5 -20t41 -23q42 -22 72 -59t30 -100z" />
<glyph unicode="&#xe0;" horiz-adv-x="506" d="M372 0l-18 64q-23 -32 -60.5 -53t-97.5 -21q-25 0 -52.5 7.5t-50.5 25t-38 47t-15 74.5t18 77.5t47.5 55t68 35.5t79.5 19l93 14v37q0 23 -5 44t-16.5 36.5t-30.5 24.5t-47 9q-43 0 -71 -24t-37 -60l-79 14q22 57 70.5 93t121.5 36q84 0 129 -46t45 -137v-372h-54z M220 54q40 0 71 16t55 42v176l-72 -12q-72 -12 -111.5 -40.5t-39.5 -85.5q0 -51 27 -73.5t70 -22.5zM304 598h-71l-139 137h113z" />
<glyph unicode="&#xe1;" horiz-adv-x="506" d="M372 0l-18 64q-23 -32 -60.5 -53t-97.5 -21q-25 0 -52.5 7.5t-50.5 25t-38 47t-15 74.5t18 77.5t47.5 55t68 35.5t79.5 19l93 14v37q0 23 -5 44t-16.5 36.5t-30.5 24.5t-47 9q-43 0 -71 -24t-37 -60l-79 14q22 57 70.5 93t121.5 36q84 0 129 -46t45 -137v-372h-54z M220 54q40 0 71 16t55 42v176l-72 -12q-72 -12 -111.5 -40.5t-39.5 -85.5q0 -51 27 -73.5t70 -22.5zM298 735h113l-140 -137h-70z" />
<glyph unicode="&#xe2;" horiz-adv-x="506" d="M372 0l-18 64q-23 -32 -60.5 -53t-97.5 -21q-25 0 -52.5 7.5t-50.5 25t-38 47t-15 74.5t18 77.5t47.5 55t68 35.5t79.5 19l93 14v37q0 23 -5 44t-16.5 36.5t-30.5 24.5t-47 9q-43 0 -71 -24t-37 -60l-79 14q22 57 70.5 93t121.5 36q84 0 129 -46t45 -137v-372h-54z M220 54q40 0 71 16t55 42v176l-72 -12q-72 -12 -111.5 -40.5t-39.5 -85.5q0 -51 27 -73.5t70 -22.5zM405 599h-85l-73 66l-73 -66h-85l122 136h72z" />
<glyph unicode="&#xe3;" horiz-adv-x="506" d="M372 0l-18 64q-23 -32 -60.5 -53t-97.5 -21q-25 0 -52.5 7.5t-50.5 25t-38 47t-15 74.5t18 77.5t47.5 55t68 35.5t79.5 19l93 14v37q0 23 -5 44t-16.5 36.5t-30.5 24.5t-47 9q-43 0 -71 -24t-37 -60l-79 14q22 57 70.5 93t121.5 36q84 0 129 -46t45 -137v-372h-54z M220 54q40 0 71 16t55 42v176l-72 -12q-72 -12 -111.5 -40.5t-39.5 -85.5q0 -51 27 -73.5t70 -22.5zM305 622q-24 0 -39.5 6t-27.5 13t-24 13t-29 6t-40 -10t-45 -27v71q22 16 45 25t44 9q24 0 39.5 -6t27.5 -13t24 -13t29 -6t38 10t43 27v-71q-22 -16 -43 -25t-42 -9z" />
<glyph unicode="&#xe4;" horiz-adv-x="506" d="M372 0l-18 64q-23 -32 -60.5 -53t-97.5 -21q-25 0 -52.5 7.5t-50.5 25t-38 47t-15 74.5t18 77.5t47.5 55t68 35.5t79.5 19l93 14v37q0 23 -5 44t-16.5 36.5t-30.5 24.5t-47 9q-43 0 -71 -24t-37 -60l-79 14q22 57 70.5 93t121.5 36q84 0 129 -46t45 -137v-372h-54z M220 54q40 0 71 16t55 42v176l-72 -12q-72 -12 -111.5 -40.5t-39.5 -85.5q0 -51 27 -73.5t70 -22.5zM97 635v90h95v-90h-95zM302 635v90h95v-90h-95z" />
<glyph unicode="&#xe5;" horiz-adv-x="506" d="M372 0l-18 64q-23 -32 -60.5 -53t-97.5 -21q-25 0 -52.5 7.5t-50.5 25t-38 47t-15 74.5t18 77.5t47.5 55t68 35.5t79.5 19l93 14v37q0 23 -5 44t-16.5 36.5t-30.5 24.5t-47 9q-43 0 -71 -24t-37 -60l-79 14q22 57 70.5 93t121.5 36q84 0 129 -46t45 -137v-372h-54z M220 54q40 0 71 16t55 42v176l-72 -12q-72 -12 -111.5 -40.5t-39.5 -85.5q0 -51 27 -73.5t70 -22.5zM130 696q0 54 33.5 84t84.5 30t84 -28.5t33 -85.5q0 -54 -33 -83t-84 -29t-84.5 29t-33.5 83zM193 696q0 -30 15 -46.5t40 -16.5t39.5 16.5t14.5 46.5t-14.5 47.5 t-39.5 17.5t-40 -17.5t-15 -47.5z" />
<glyph unicode="&#xe6;" horiz-adv-x="809" d="M557 54q25 0 44.5 7.5t33.5 19.5t23.5 27t14.5 30l70 -15q-9 -26 -25.5 -50t-40 -42.5t-55 -29.5t-70.5 -11q-49 0 -93.5 22t-74.5 78q-12 -20 -28.5 -38t-39.5 -32t-53 -22t-69 -8q-26 0 -53 7.5t-49.5 25t-37 47t-14.5 74.5t18 77.5t47.5 55t68 35.5t79.5 19l93 14v37 q0 23 -5 43.5t-16.5 35.5t-30.5 24t-47 9q-43 0 -71 -23.5t-37 -59.5l-79 13q22 57 71 93t121 36q103 0 143 -79q28 45 67 63t84 18q103 0 155.5 -71t52.5 -227h-334q1 -63 13 -102.5t31 -62t43 -30.5t50 -8zM220 54q48 0 78 19.5t48 50.5v164l-72 -12q-72 -11 -111.5 -42.5 t-39.5 -83.5q0 -51 27 -73.5t70 -22.5zM551 495q-52 0 -87 -41.5t-43 -135.5h252q-2 87 -33.5 132t-88.5 45z" />
<glyph unicode="&#xe7;" horiz-adv-x="509" d="M380 -142q0 -45 -33 -72t-84 -27q-29 0 -56 7t-46 18l30 45q11 -5 27.5 -9t31.5 -4q23 0 41 9.5t18 36.5q0 24 -25.5 34.5t-62.5 15.5l15 81q-32 5 -63 21.5t-55.5 49t-39.5 83t-15 124.5q0 77 18.5 131t48.5 88t68 49.5t77 15.5q45 0 78 -14t56.5 -36t37 -49.5 t19.5 -54.5l-80 -12q-10 45 -34 73t-75 28q-27 0 -51 -12t-41.5 -38.5t-27.5 -68.5t-10 -103t10.5 -102t27.5 -66t40 -35.5t49 -10.5q25 0 45 8.5t34 23t22.5 33t12.5 39.5l81 -10q-7 -27 -20.5 -53t-34 -47.5t-49 -36.5t-64.5 -19l-3 -43q42 -9 62 -34t20 -57z" />
<glyph unicode="&#xe8;" horiz-adv-x="534" d="M282 54q25 0 44.5 7.5t33.5 19.5t23.5 27t14.5 30l70 -15q-9 -26 -25.5 -50t-40 -42.5t-55 -29.5t-70.5 -11q-38 0 -76 13.5t-69 45.5t-50 86t-19 135q0 82 18.5 136.5t48 87.5t66.5 47t75 14q103 0 155.5 -71t52.5 -227h-334q1 -63 13 -102.5t31 -62t43 -30.5t50 -8z M276 495q-52 0 -87 -41.5t-43 -135.5h252q-2 87 -33.5 132t-88.5 45zM332 598h-71l-139 137h113z" />
<glyph unicode="&#xe9;" horiz-adv-x="534" d="M282 54q25 0 44.5 7.5t33.5 19.5t23.5 27t14.5 30l70 -15q-9 -26 -25.5 -50t-40 -42.5t-55 -29.5t-70.5 -11q-38 0 -76 13.5t-69 45.5t-50 86t-19 135q0 82 18.5 136.5t48 87.5t66.5 47t75 14q103 0 155.5 -71t52.5 -227h-334q1 -63 13 -102.5t31 -62t43 -30.5t50 -8z M276 495q-52 0 -87 -41.5t-43 -135.5h252q-2 87 -33.5 132t-88.5 45zM316 735h113l-140 -137h-70z" />
<glyph unicode="&#xea;" horiz-adv-x="534" d="M282 54q25 0 44.5 7.5t33.5 19.5t23.5 27t14.5 30l70 -15q-9 -26 -25.5 -50t-40 -42.5t-55 -29.5t-70.5 -11q-38 0 -76 13.5t-69 45.5t-50 86t-19 135q0 82 18.5 136.5t48 87.5t66.5 47t75 14q103 0 155.5 -71t52.5 -227h-334q1 -63 13 -102.5t31 -62t43 -30.5t50 -8z M276 495q-52 0 -87 -41.5t-43 -135.5h252q-2 87 -33.5 132t-88.5 45zM435 599h-85l-73 66l-73 -66h-85l122 136h72z" />
<glyph unicode="&#xeb;" horiz-adv-x="534" d="M282 54q25 0 44.5 7.5t33.5 19.5t23.5 27t14.5 30l70 -15q-9 -26 -25.5 -50t-40 -42.5t-55 -29.5t-70.5 -11q-38 0 -76 13.5t-69 45.5t-50 86t-19 135q0 82 18.5 136.5t48 87.5t66.5 47t75 14q103 0 155.5 -71t52.5 -227h-334q1 -63 13 -102.5t31 -62t43 -30.5t50 -8z M276 495q-52 0 -87 -41.5t-43 -135.5h252q-2 87 -33.5 132t-88.5 45zM127 635v90h95v-90h-95zM332 635v90h95v-90h-95z" />
<glyph unicode="&#xec;" horiz-adv-x="240" d="M80 0v540h80v-540h-80zM186 598h-71l-139 137h113z" />
<glyph unicode="&#xed;" horiz-adv-x="240" d="M80 0v540h80v-540h-80zM152 735h113l-140 -137h-70z" />
<glyph unicode="&#xee;" horiz-adv-x="240" d="M279 599h-85l-73 66l-73 -66h-85l122 136h72zM80 0v540h80v-540h-80z" />
<glyph unicode="&#xef;" horiz-adv-x="240" d="M80 0v540h80v-540h-80zM-29 635v90h95v-90h-95zM176 635v90h95v-90h-95z" />
<glyph unicode="&#xf0;" horiz-adv-x="484" d="M434 345q0 -171 -47 -263t-156 -92q-38 0 -72.5 15t-61 45.5t-42 75.5t-15.5 105q0 48 9.5 91.5t30.5 76t53.5 52t79.5 19.5q46 0 80.5 -20t58.5 -49q-7 66 -31 113t-56 79l-35 -37h-82l70 73q-29 19 -58 29.5t-54 15.5l23 61q30 -8 66 -21t71 -34l38 40h82l-71 -75 q25 -21 46.5 -49.5t37.5 -65t25.5 -82.5t9.5 -103zM227 407q-51 0 -78.5 -45.5t-27.5 -136.5q0 -48 9.5 -81.5t25.5 -54t36.5 -29.5t41.5 -9q61 0 89.5 68t30.5 224q-24 24 -56.5 44t-70.5 20z" />
<glyph unicode="&#xf1;" horiz-adv-x="548" d="M80 0v540h58l15 -66q33 44 76 62.5t79 18.5q79 0 119.5 -49.5t40.5 -155.5v-350h-80v354q0 73 -24.5 104.5t-78.5 31.5q-38 0 -69 -21.5t-56 -51.5v-417h-80zM338 618q-24 0 -39.5 6t-27.5 13t-24 13t-29 6t-40 -10t-45 -27v71q22 16 45 25t44 9q24 0 39.5 -6t27.5 -13 t24 -13t29 -6t38 10t43 27v-71q-22 -16 -43 -25t-42 -9z" />
<glyph unicode="&#xf2;" horiz-adv-x="565" d="M63 270q0 83 20 138t51.5 87.5t71 46t77.5 13.5t77 -13t70.5 -45.5t51.5 -87.5t20 -139t-20 -138t-51.5 -85.5t-70.5 -44t-77 -12.5t-77.5 12.5t-71 44.5t-51.5 86t-20 137zM147 270q0 -114 37.5 -166.5t99.5 -52.5q63 0 99 51.5t36 167.5q0 115 -38 169.5t-98 54.5 q-59 0 -97.5 -55t-38.5 -169zM339 598h-71l-139 137h113z" />
<glyph unicode="&#xf3;" horiz-adv-x="565" d="M63 270q0 83 20 138t51.5 87.5t71 46t77.5 13.5t77 -13t70.5 -45.5t51.5 -87.5t20 -139t-20 -138t-51.5 -85.5t-70.5 -44t-77 -12.5t-77.5 12.5t-71 44.5t-51.5 86t-20 137zM147 270q0 -114 37.5 -166.5t99.5 -52.5q63 0 99 51.5t36 167.5q0 115 -38 169.5t-98 54.5 q-59 0 -97.5 -55t-38.5 -169zM323 735h113l-140 -137h-70z" />
<glyph unicode="&#xf4;" horiz-adv-x="565" d="M63 270q0 83 20 138t51.5 87.5t71 46t77.5 13.5t77 -13t70.5 -45.5t51.5 -87.5t20 -139t-20 -138t-51.5 -85.5t-70.5 -44t-77 -12.5t-77.5 12.5t-71 44.5t-51.5 86t-20 137zM147 270q0 -114 37.5 -166.5t99.5 -52.5q63 0 99 51.5t36 167.5q0 115 -38 169.5t-98 54.5 q-59 0 -97.5 -55t-38.5 -169zM441 599h-85l-73 66l-73 -66h-85l122 136h72z" />
<glyph unicode="&#xf5;" horiz-adv-x="565" d="M63 270q0 83 20 138t51.5 87.5t71 46t77.5 13.5t77 -13t70.5 -45.5t51.5 -87.5t20 -139t-20 -138t-51.5 -85.5t-70.5 -44t-77 -12.5t-77.5 12.5t-71 44.5t-51.5 86t-20 137zM147 270q0 -114 37.5 -166.5t99.5 -52.5q63 0 99 51.5t36 167.5q0 115 -38 169.5t-98 54.5 q-59 0 -97.5 -55t-38.5 -169zM343 620q-24 0 -39.5 6t-27.5 13t-24 13t-29 6t-40 -10t-45 -27v71q22 16 45 25t44 9q24 0 39.5 -6t27.5 -13t24 -13t29 -6t38 10t43 27v-71q-22 -16 -43 -25t-42 -9z" />
<glyph unicode="&#xf6;" horiz-adv-x="565" d="M63 270q0 83 20 138t51.5 87.5t71 46t77.5 13.5t77 -13t70.5 -45.5t51.5 -87.5t20 -139t-20 -138t-51.5 -85.5t-70.5 -44t-77 -12.5t-77.5 12.5t-71 44.5t-51.5 86t-20 137zM147 270q0 -114 37.5 -166.5t99.5 -52.5q63 0 99 51.5t36 167.5q0 115 -38 169.5t-98 54.5 q-59 0 -97.5 -55t-38.5 -169zM133 635v90h95v-90h-95zM338 635v90h95v-90h-95z" />
<glyph unicode="&#xf7;" d="M220 51v100h100v-100h-100zM220 489v100h100v-100h-100zM65 288v70h410v-70h-410z" />
<glyph unicode="&#xf8;" horiz-adv-x="565" d="M63 270q0 83 20 138t51.5 87.5t71 46t77.5 13.5q48 0 90 -19l45 97h70l-61 -133q33 -32 54 -87.5t21 -142.5q0 -84 -20 -138t-51.5 -85.5t-70.5 -44t-77 -12.5q-21 0 -43 3.5t-42 11.5l-50 -107h-72l66 142q-35 31 -57 86.5t-22 143.5zM147 270q0 -54 8.5 -93.5 t24.5 -65.5l167 363q-29 20 -64 20q-59 0 -97.5 -55t-38.5 -169zM419 270q0 51 -8.5 89.5t-22.5 66.5l-165 -360q27 -15 61 -15q63 0 99 51.5t36 167.5z" />
<glyph unicode="&#xf9;" horiz-adv-x="536" d="M160 540v-354q0 -39 7 -64t20.5 -40t31.5 -21t41 -6q40 0 68 19.5t48 50.5v415h80v-540h-55l-18 68q-26 -40 -61.5 -59t-77.5 -19q-75 0 -119.5 47t-44.5 151v352h80zM322 598h-71l-139 137h113z" />
<glyph unicode="&#xfa;" horiz-adv-x="536" d="M160 540v-354q0 -39 7 -64t20.5 -40t31.5 -21t41 -6q40 0 68 19.5t48 50.5v415h80v-540h-55l-18 68q-26 -40 -61.5 -59t-77.5 -19q-75 0 -119.5 47t-44.5 151v352h80zM331 735h113l-140 -137h-70z" />
<glyph unicode="&#xfb;" horiz-adv-x="536" d="M160 540v-354q0 -39 7 -64t20.5 -40t31.5 -21t41 -6q40 0 68 19.5t48 50.5v415h80v-540h-55l-18 68q-26 -40 -61.5 -59t-77.5 -19q-75 0 -119.5 47t-44.5 151v352h80zM425 593h-85l-73 66l-73 -66h-85l122 136h72z" />
<glyph unicode="&#xfc;" horiz-adv-x="536" d="M160 540v-354q0 -39 7 -64t20.5 -40t31.5 -21t41 -6q40 0 68 19.5t48 50.5v415h80v-540h-55l-18 68q-26 -40 -61.5 -59t-77.5 -19q-75 0 -119.5 47t-44.5 151v352h80zM118 635v90h95v-90h-95zM323 635v90h95v-90h-95z" />
<glyph unicode="&#xfd;" horiz-adv-x="458" d="M292 -14q-11 -37 -22 -65t-26.5 -46.5t-38.5 -28t-59 -9.5q-29 0 -65 9v63q17 -4 32 -6t31 -2q36 0 50 24t26 75h-38l-172 540h85l144 -487l133 487h76zM282 735h113l-140 -137h-70z" />
<glyph unicode="&#xfe;" horiz-adv-x="528" d="M80 -170v905h80v-244q25 30 59 47t79 17q34 0 64 -15t53 -48.5t36.5 -86.5t13.5 -129q0 -140 -52.5 -213t-146.5 -73q-69 0 -106 42v-202h-80zM265 489q-31 0 -57 -16.5t-48 -39.5v-340q18 -19 40.5 -32t49.5 -13q29 0 53 12.5t41.5 40.5t27 72.5t9.5 107.5 q0 60 -8.5 100t-24 64t-37 34t-46.5 10z" />
<glyph unicode="&#xff;" horiz-adv-x="458" d="M292 -14q-11 -37 -22 -65t-26.5 -46.5t-38.5 -28t-59 -9.5q-29 0 -65 9v63q17 -4 32 -6t31 -2q36 0 50 24t26 75h-38l-172 540h85l144 -487l133 487h76zM80 635v90h95v-90h-95zM285 635v90h95v-90h-95z" />
<glyph unicode="&#x131;" horiz-adv-x="240" d="M80 0v540h80v-540h-80z" />
<glyph unicode="&#x152;" horiz-adv-x="894" d="M834 0h-420q-41 -15 -85 -15q-50 0 -96.5 19.5t-82.5 63.5t-58 115.5t-22 176.5t22 176.5t58 115.5t82.5 63.5t96.5 19.5q44 0 85 -15h420v-65h-330q34 -42 55 -104.5t25 -153.5h220v-64h-220q-3 -97 -24.5 -161.5t-55.5 -106.5h330v-65zM157 360q0 -153 42.5 -231.5 t129.5 -78.5t129.5 78.5t42.5 231.5t-42.5 231.5t-129.5 78.5t-129.5 -78.5t-42.5 -231.5z" />
<glyph unicode="&#x153;" horiz-adv-x="884" d="M632 54q25 0 44.5 7.5t33.5 19.5t23.5 27t14.5 30l70 -15q-9 -26 -25.5 -50t-40 -42.5t-55 -29.5t-70.5 -11q-51 0 -97 23.5t-75 84.5q-24 -55 -71.5 -81.5t-100.5 -26.5q-38 0 -77.5 12.5t-71 44.5t-51.5 86t-20 137t20 138t51.5 87.5t71 46t77.5 13.5q52 0 98.5 -25.5 t72.5 -83.5q27 60 71.5 84.5t95.5 24.5q103 0 155.5 -71t52.5 -227h-334q1 -63 13 -102.5t31 -62t43 -30.5t50 -8zM147 270q0 -114 37.5 -165.5t99.5 -51.5t98.5 50.5t36.5 166.5t-38 169t-98 53q-59 0 -97.5 -54t-38.5 -168zM626 495q-52 0 -87 -41.5t-43 -135.5h252 q-2 87 -33.5 132t-88.5 45z" />
<glyph unicode="&#x178;" horiz-adv-x="512" d="M502 720l-202 -432v-288h-84v288l-206 432h93l157 -344l159 344h83zM108 785v90h95v-90h-95zM313 785v90h95v-90h-95z" />
<glyph unicode="&#x2c6;" horiz-adv-x="376" d="M346 599h-85l-73 66l-73 -66h-85l122 136h72z" />
<glyph unicode="&#x2da;" horiz-adv-x="295" d="M30 696q0 54 33.5 84t84.5 30t84 -28.5t33 -85.5q0 -54 -33 -83t-84 -29t-84.5 29t-33.5 83zM93 696q0 -30 15 -46.5t40 -16.5t39.5 16.5t14.5 46.5t-14.5 47.5t-39.5 17.5t-40 -17.5t-15 -47.5z" />
<glyph unicode="&#x2dc;" horiz-adv-x="350" d="M235 620q-24 0 -39.5 6t-27.5 13t-24 13t-29 6t-40 -10t-45 -27v71q22 16 45 25t44 9q24 0 39.5 -6t27.5 -13t24 -13t29 -6t38 10t43 27v-71q-22 -16 -43 -25t-42 -9z" />
<glyph unicode="&#x2000;" horiz-adv-x="460" />
<glyph unicode="&#x2001;" horiz-adv-x="920" />
<glyph unicode="&#x2002;" horiz-adv-x="460" />
<glyph unicode="&#x2003;" horiz-adv-x="920" />
<glyph unicode="&#x2004;" horiz-adv-x="306" />
<glyph unicode="&#x2005;" horiz-adv-x="230" />
<glyph unicode="&#x2006;" horiz-adv-x="153" />
<glyph unicode="&#x2007;" horiz-adv-x="153" />
<glyph unicode="&#x2008;" horiz-adv-x="115" />
<glyph unicode="&#x2009;" horiz-adv-x="184" />
<glyph unicode="&#x200a;" horiz-adv-x="51" />
<glyph unicode="&#x2010;" horiz-adv-x="425" d="M60 287v72h305v-72h-305z" />
<glyph unicode="&#x2011;" horiz-adv-x="425" d="M60 287v72h305v-72h-305z" />
<glyph unicode="&#x2012;" horiz-adv-x="425" d="M60 287v72h305v-72h-305z" />
<glyph unicode="&#x2013;" horiz-adv-x="400" d="M0 287v72h400v-72h-400z" />
<glyph unicode="&#x2014;" horiz-adv-x="600" d="M0 287v72h600v-72h-600z" />
<glyph unicode="&#x2018;" horiz-adv-x="258" d="M120 726h47l-39 -143h31v-95h-100v94z" />
<glyph unicode="&#x2019;" horiz-adv-x="258" d="M122 467h-47l39 143h-31v95h100v-94z" />
<glyph unicode="&#x201a;" horiz-adv-x="258" d="M122 -143h-47l39 143h-31v95h100v-94z" />
<glyph unicode="&#x201c;" horiz-adv-x="417" d="M279 726h47l-39 -143h31v-95h-100v94zM120 726h47l-39 -143h31v-95h-100v94z" />
<glyph unicode="&#x201d;" horiz-adv-x="408" d="M122 467h-47l39 143h-31v95h100v-94zM272 467h-47l39 143h-31v95h100v-94z" />
<glyph unicode="&#x201e;" horiz-adv-x="408" d="M272 -143h-47l39 143h-31v95h100v-94zM122 -143h-47l39 143h-31v95h100v-94z" />
<glyph unicode="&#x2022;" horiz-adv-x="315" d="M80 252v145h155v-145h-155z" />
<glyph unicode="&#x2026;" horiz-adv-x="690" d="M65 0v100h100v-100h-100zM295 0v100h100v-100h-100zM525 0v100h100v-100h-100z" />
<glyph unicode="&#x202f;" horiz-adv-x="184" />
<glyph unicode="&#x2039;" horiz-adv-x="311" d="M60 326l117 205h64l-92 -208l82 -222h-64z" />
<glyph unicode="&#x203a;" horiz-adv-x="311" d="M144 101h-64l82 222l-92 208h64l117 -205z" />
<glyph unicode="&#x2044;" horiz-adv-x="270" d="M-56 -100h-86l467 910h86z" />
<glyph unicode="&#x205f;" horiz-adv-x="230" />
<glyph unicode="&#x2074;" horiz-adv-x="340" d="M248 660v-111h56v-58h-56v-71h-66v71h-147v62l84 247h71l-88 -251h82l11 111h53z" />
<glyph unicode="&#x20ac;" d="M424 389h-234q-1 -5 -1 -11v-66q0 -5 1 -10h213l-15 -60h-194q6 -54 19.5 -90.5t32.5 -59.5t43 -33t51 -10q35 0 63.5 11.5t54.5 26.5v-68q-18 -11 -50.5 -22.5t-80.5 -11.5q-31 0 -65 10t-64 38t-53 78.5t-32 130.5h-88l15 60h69q-1 5 -1 10v66q0 6 1 11h-84l15 60h74 q10 79 33.5 129.5t54.5 79.5t67.5 40.5t72.5 11.5q54 0 89 -14t61 -33l-17 -64q-32 24 -60 37t-66 13q-66 0 -104.5 -48.5t-50.5 -151.5h245z" />
<glyph unicode="&#x2122;" horiz-adv-x="793" d="M497 324l-92 320v-320h-61v340h-118v-340h-65v340h-116v56h401l85 -327l80 327h100v-396h-63v320l-88 -320h-63z" />
<glyph unicode="&#x25fc;" d="M0 540h540v-540h-540v540z" />
<glyph horiz-adv-x="274" d="M244 768h-72l-142 117h119z" />
<glyph horiz-adv-x="360" d="M30 785v90h95v-90h-95zM235 785v90h95v-90h-95z" />
<glyph horiz-adv-x="274" d="M125 885h119l-142 -117h-72z" />
<glyph horiz-adv-x="376" d="M346 768h-90l-68 51l-68 -51h-90l119 117h78z" />
<glyph horiz-adv-x="350" d="M235 770q-24 0 -39.5 6t-27.5 13t-24 13t-29 6t-40 -10t-45 -27v71q22 16 45 25t44 9q24 0 39.5 -6t27.5 -13t24 -13t29 -6t38 10t43 27v-71q-22 -16 -43 -25t-42 -9z" />
</font>
</defs>
</svg>
