<?xml version="1.0" standalone="no"?>
<!DOCTYPE svg PUBLIC "-//W3C//DTD SVG 1.1//EN" "http://www.w3.org/Graphics/SVG/1.1/DTD/svg11.dtd" >
<svg xmlns="http://www.w3.org/2000/svg" version="1.1">
<metadata></metadata>
<defs>
<font id="suzukiproboldregular" horiz-adv-x="540" >
<font-face units-per-em="1000" ascent="798" descent="-202" />
<missing-glyph horiz-adv-x="290" />
<glyph unicode="&#xfb01;" horiz-adv-x="632" d="M511 621q-45 9 -87 16t-90 7q-58 0 -78.5 -18t-20.5 -60v-26h327v-540h-140v440h-187v-440h-140v440h-80v100h80v20q0 96 57.5 140.5t160.5 44.5q27 0 49.5 -1t45.5 -4t48 -7t55 -10v-102z" />
<glyph unicode="&#xfb02;" horiz-adv-x="632" d="M422 0v637q-11 1 -24.5 2.5t-26.5 2.5t-24 1.5t-17 0.5q-49 0 -72 -18t-23 -60v-26h97v-100h-97v-440h-140v440h-80v100h80v20q0 47 15.5 82t43 58t66 34t83.5 11q36 0 68 -2t63 -5.5t62 -8t66 -9.5v-720h-140z" />
<glyph unicode="&#xfb03;" horiz-adv-x="958" d="M837 621q-45 9 -87 16t-90 7q-58 0 -78.5 -18t-20.5 -60v-26h327v-540h-140v440h-187v-440h-140v440h-186v-440h-140v440h-80v100h80v10q0 47 15.5 82t43 58t66 34t83.5 11q27 0 50 -1t45 -4t45.5 -7.5t51.5 -11.5q52 34 144 34q27 0 49.5 -1t45.5 -4t48 -7t55 -10v-102z M421 560q0 36 9 65q-10 2 -23 3.5t-25.5 3t-23.5 2t-18 0.5q-62 0 -83.5 -18t-21.5 -60v-16h186v20z" />
<glyph unicode="&#xfb04;" horiz-adv-x="958" d="M561 440v-440h-140v440h-186v-440h-140v440h-80v100h80v10q0 47 15.5 82t43 58t66 34t83.5 11q27 0 50 -1t45 -4t45.5 -7.5t51.5 -11.5q52 34 134 34q36 0 68 -2t63 -5.5t62 -8t66 -9.5v-720h-140v637q-11 1 -24.5 2.5t-26.5 2.5t-24 1.5t-17 0.5q-49 0 -72 -18t-23 -60 v-26h97v-100h-97zM235 540h186v20q0 36 9 65q-20 4 -48 6.5t-42 2.5q-62 0 -83.5 -18t-21.5 -60v-16z" />
<glyph horiz-adv-x="0" />
<glyph unicode="&#xd;" horiz-adv-x="220" />
<glyph unicode=" "  horiz-adv-x="290" />
<glyph unicode="&#x09;" horiz-adv-x="290" />
<glyph unicode="&#xa0;" horiz-adv-x="290" />
<glyph unicode="!" horiz-adv-x="270" d="M60 0v140h150v-140h-150zM77 240l-15 480h146l-15 -480h-116z" />
<glyph unicode="&#x22;" horiz-adv-x="440" d="M200 631l-34 -173h-72l-34 172v105h140v-104zM380 631l-34 -173h-72l-34 172v105h140v-104z" />
<glyph unicode="#" d="M499 179h-84l-15 -179h-111l15 179h-104l-15 -179h-111l15 179h-78l8 98h79l13 153h-80l9 98h80l15 172h111l-15 -172h104l15 172h111l-15 -172h83l-9 -98h-83l-13 -153h84zM209 277h104l13 153h-104z" />
<glyph unicode="$" d="M277 606q-42 0 -64 -20.5t-22 -57.5q0 -31 22.5 -54.5t82.5 -48.5q46 -19 84.5 -39.5t66 -47t43 -60t15.5 -78.5q0 -36 -9.5 -70.5t-30 -63t-53.5 -48.5t-81 -28v-125h-112v124q-46 7 -79 26.5t-54.5 44.5t-33 51.5t-14.5 48.5l133 20q4 -35 29 -62t73 -27q16 0 32.5 4.5 t29 14.5t20.5 26t8 40q0 27 -9.5 46t-28 34.5t-47 29.5t-66.5 31q-74 34 -118 81t-44 118q0 75 45 125t124 64v115h112v-114q40 -8 69 -25t48.5 -39.5t31 -47.5t16.5 -48l-131 -25q-5 33 -26 59t-62 26z" />
<glyph unicode="%" horiz-adv-x="792" d="M317 0h-119l275 700h119zM40 541q0 85 43.5 127t109.5 42t109 -42t43 -127t-43 -126t-109 -41t-109.5 41t-43.5 126zM148 541q0 -51 11.5 -72t33.5 -21t33.5 21t11.5 72t-11.5 73t-33.5 22t-33.5 -22t-11.5 -73zM447 157q0 85 43.5 127t109.5 42t109 -42t43 -127 t-43 -126t-109 -41t-109.5 41t-43.5 126zM555 157q0 -51 11.5 -72t33.5 -21t33.5 21t11.5 72t-11.5 73t-33.5 22t-33.5 -22t-11.5 -73z" />
<glyph unicode="&#x26;" horiz-adv-x="721" d="M638 354q-12 -115 -61 -204l144 -150h-162l-58 58q-38 -32 -87.5 -50t-112.5 -18q-57 0 -101.5 14t-75.5 39.5t-47.5 61t-16.5 79.5q0 70 32 113.5t93 79.5q-24 26 -39.5 46.5t-24.5 39t-12 36.5t-3 40q0 27 11 57t36 55.5t64 42t96 16.5q53 0 91 -14.5t62 -38 t35.5 -52.5t11.5 -59q0 -60 -35 -106t-101 -82l110 -115q11 29 18 61.5t10 65.5zM318 103q29 0 54.5 10t46.5 27l-151 152l-7 6q-32 -21 -45.5 -43.5t-13.5 -56.5q0 -40 32.5 -67.5t83.5 -27.5zM244 542q0 -13 2.5 -24t9 -23t17.5 -25.5t29 -32.5q48 25 67.5 52t19.5 54 q0 29 -19.5 48t-52.5 19t-53 -18t-20 -50z" />
<glyph unicode="'" horiz-adv-x="260" d="M200 631l-34 -173h-72l-34 172v105h140v-104z" />
<glyph unicode="(" horiz-adv-x="340" d="M30 329q0 88 12.5 158t33 127.5t46.5 105t54 90.5h124q-25 -46 -49 -96t-43 -108t-30.5 -126.5t-11.5 -150.5q0 -83 11.5 -151t30.5 -126t43 -108t49 -96h-124q-28 43 -54 90.5t-46.5 105t-33 127.5t-12.5 158z" />
<glyph unicode=")" horiz-adv-x="340" d="M310 329q0 -88 -12.5 -158t-33 -127.5t-46.5 -105t-54 -90.5h-124q25 46 49 96t43 108t30.5 126t11.5 151q0 82 -11.5 150.5t-30.5 126.5t-43 108t-49 96h124q28 -43 54 -90.5t46.5 -105t33 -127.5t12.5 -158z" />
<glyph unicode="*" horiz-adv-x="470" d="M266 595l121 80l43 -133l-145 -7l114 -90l-113 -82l-51 135l-51 -135l-113 82l113 90l-144 7l43 133l120 -80l-38 140h140z" />
<glyph unicode="+" d="M206 262h-141v118h141v141h128v-141h141v-118h-141v-141h-128v141z" />
<glyph unicode="," horiz-adv-x="265" d="M205 1l-84 -163h-81l55 162h-35v135h145v-134z" />
<glyph unicode="-" horiz-adv-x="405" d="M50 261v121h305v-121h-305z" />
<glyph unicode="." horiz-adv-x="265" d="M60 0v135h145v-135h-145z" />
<glyph unicode="/" horiz-adv-x="340" d="M144 -90h-133l185 820h133z" />
<glyph unicode="0" d="M45 349q0 98 15 166.5t43.5 112t70.5 63t97 19.5t96.5 -19.5t70 -63t43 -112t14.5 -166.5q0 -96 -14.5 -164t-43 -111.5t-70 -63.5t-96.5 -20t-97 20.5t-70.5 64t-43.5 111.5t-15 163zM189 349q0 -79 6 -129.5t16.5 -80t26 -40.5t33.5 -11t33 11t25.5 40.5t16.5 80 t6 129.5t-6 130t-16.5 81t-25.5 41.5t-33 11.5t-33.5 -11.5t-26 -41.5t-16.5 -81t-6 -130z" />
<glyph unicode="1" d="M96 0v107h133v465l-142 -84v130l136 82h145v-593h109v-107h-381z" />
<glyph unicode="2" d="M263 601q-34 0 -56 -24.5t-27 -70.5l-133 17q7 39 24.5 73t45 59.5t65 40t85.5 14.5q42 0 79.5 -11.5t66.5 -35.5t46 -61.5t17 -89.5q0 -34 -10 -65t-28.5 -62.5t-45 -66t-59.5 -75.5l-102 -124h234v-119h-407v119l162 191q30 36 52 64.5t35.5 52.5t20 44.5t6.5 40.5 q0 27 -6 44.5t-15.5 27t-22.5 13.5t-27 4z" />
<glyph unicode="3" d="M254 95q13 0 27.5 4.5t26.5 16t20 32t8 52.5q0 41 -10.5 65t-27 36.5t-36.5 16t-39 3.5h-32v99h40q13 0 29 4t29.5 14.5t23 29t9.5 47.5q0 28 -7 45.5t-17.5 27.5t-23.5 13.5t-24 3.5q-31 0 -52.5 -22t-26.5 -62l-131 17q9 39 29 70.5t48.5 54t64 35t76.5 12.5 q40 0 77.5 -10.5t66 -33t45.5 -57t17 -81.5v-5q0 -32 -12 -57t-30 -43.5t-39.5 -30t-40.5 -15.5q8 -2 19 -5t24 -8q19 -8 36 -22t30 -34t21 -46t8 -59q0 -57 -19 -97t-50 -66t-70.5 -38t-80.5 -12q-50 0 -87.5 14.5t-64.5 38.5t-43 55t-22 64l132 17q1 -16 7 -31t16 -27 t24 -19t32 -7z" />
<glyph unicode="4" d="M419 444v-200h96v-107h-96v-137h-130v137h-233v114l136 449h135l-138 -456h107l20 200h103z" />
<glyph unicode="5" d="M265 95q14 0 29 5.5t27 20t19.5 39t7.5 63.5q0 45 -7.5 73t-19.5 43.5t-27 21t-30 5.5q-20 0 -42 -12t-35 -38h-108l19 384h351v-102h-229l-11 -182q20 20 48.5 33.5t63.5 13.5t66 -12.5t54.5 -40.5t37 -72.5t13.5 -108.5q0 -61 -18 -106t-49 -74.5t-73 -44t-90 -14.5 q-50 0 -86 14t-60.5 36.5t-38.5 50.5t-19 57l131 17q5 -34 26 -52t50 -18z" />
<glyph unicode="6" d="M290 612q-14 0 -28.5 -6.5t-27 -27.5t-21.5 -61.5t-12 -107.5q22 23 52.5 38.5t75.5 15.5q81 0 124.5 -57t43.5 -175q0 -67 -19 -113t-50.5 -74.5t-71.5 -41t-82 -12.5q-51 0 -91.5 17t-68.5 57t-43 105t-15 161q0 121 23 195.5t58.5 115.5t77 55t79.5 14q49 0 83 -14.5 t57 -37.5t36 -51.5t19 -56.5l-134 -17q-7 79 -65 79zM278 355q-38 0 -78 -25q0 -84 6.5 -132t17 -72t23.5 -30t27 -6q13 0 27.5 4t26.5 18t19.5 41t7.5 74q0 39 -6.5 63.5t-17 39t-24.5 20t-29 5.5z" />
<glyph unicode="7" d="M267 0h-147l220 590h-286v110h421v-120z" />
<glyph unicode="8" d="M270 -10q-50 0 -91.5 12.5t-72.5 37.5t-48 63.5t-17 91.5q0 38 12 65.5t29 46.5t37 30.5t35 16.5q-18 9 -35.5 23.5t-31 35t-21.5 46.5t-8 59q0 49 16.5 85.5t45.5 60t67.5 35t82.5 11.5q43 0 82 -11t67.5 -33.5t45.5 -57.5t17 -83q0 -31 -10 -54t-25 -39.5t-32.5 -27.5 t-33.5 -17q17 -6 37.5 -19.5t38.5 -36t30 -54.5t12 -75q0 -56 -17 -96.5t-48 -66t-73 -37.5t-91 -12zM351 202q0 29 -8 48t-21.5 31t-30.5 20t-34 15q-11 -5 -23 -11.5t-22 -18.5t-16.5 -32t-6.5 -52q0 -57 22 -84t59 -27t59 27t22 84zM344 523q0 32 -7.5 51t-18.5 29.5 t-24 13.5t-24 3t-24 -3t-24 -12.5t-18.5 -29t-7.5 -52.5q0 -26 10 -43t23.5 -28.5t28.5 -17t25 -7.5q7 4 17.5 10.5t20 17.5t16.5 27.5t7 40.5z" />
<glyph unicode="9" d="M257 88q17 0 31 8t24.5 31.5t17 64.5t8.5 107q-22 -23 -53.5 -39t-76.5 -16q-81 0 -124.5 58.5t-43.5 167.5q0 67 19.5 113t52 74t73 40.5t82.5 12.5q102 0 159 -79t57 -251q0 -119 -17.5 -194.5t-49 -119t-74.5 -60t-93 -16.5q-44 0 -77.5 13.5t-57.5 35.5t-38.5 49.5 t-20.5 56.5l135 17q12 -74 67 -74zM259 352q40 0 80 25q-1 78 -7.5 124.5t-17 70.5t-23.5 31t-27 7t-28.5 -4t-26.5 -17.5t-19.5 -41t-7.5 -73.5q0 -39 6.5 -62.5t17 -37t24.5 -18t29 -4.5z" />
<glyph unicode=":" horiz-adv-x="265" d="M60 0v135h145v-135h-145zM60 405v135h145v-135h-145z" />
<glyph unicode=";" horiz-adv-x="265" d="M60 405v135h145v-135h-145zM205 1l-84 -163h-81l55 162h-35v135h145v-134z" />
<glyph unicode="&#x3c;" d="M475 541v-136l-266 -85l266 -89v-140l-410 165v120z" />
<glyph unicode="=" d="M65 361v120h410v-120h-410zM65 171v120h410v-120h-410z" />
<glyph unicode="&#x3e;" d="M475 376v-120l-410 -165v140l266 89l-266 85v136z" />
<glyph unicode="?" horiz-adv-x="520" d="M192 0v140h150v-140h-150zM262 632q-30 0 -51.5 -23.5t-26.5 -62.5l-139 17q9 31 25 62t42.5 55.5t65.5 39.5t93 15q42 0 79 -11t64.5 -33t44 -56t16.5 -80q0 -51 -21.5 -85.5t-48 -61.5t-48 -51t-21.5 -54v-63h-139v92q0 25 10 45.5t24.5 38.5t32 34t32 32.5t24.5 34.5 t10 40q0 42 -20.5 58.5t-47.5 16.5z" />
<glyph unicode="@" horiz-adv-x="923" d="M659 96q-46 0 -72.5 26t-31.5 66q-6 -15 -15.5 -31.5t-25 -30t-38 -22t-55.5 -8.5q-30 0 -57.5 9.5t-48.5 31.5t-33.5 57.5t-12.5 87.5q0 95 22.5 151t53.5 85.5t64 38t54 8.5q35 0 58 -11.5t34 -25.5l13 28h85l-27 -248q-2 -16 -3.5 -33t-1.5 -31q0 -21 2.5 -33t7 -18.5 t10.5 -8t14 -1.5q13 0 29 10t29 32.5t22 58.5t9 89q0 85 -21.5 137.5t-57.5 82t-82 40t-94 10.5q-42 0 -95 -15t-99.5 -52.5t-78.5 -101.5t-32 -162q0 -95 26 -156.5t65.5 -96.5t88 -48.5t93.5 -13.5q43 0 83 4t77 12v-89q-35 -8 -76 -14t-92 -6q-70 0 -139.5 23t-125 72.5 t-90 126.5t-34.5 185q0 77 19 138t51 108t74.5 81t90.5 55.5t98 31.5t96 10q78 0 146 -20.5t119 -64t80 -111.5t29 -162q0 -58 -15.5 -109t-43 -89.5t-65 -60.5t-80.5 -22zM481 482q-11 0 -27 -7.5t-30.5 -29t-24.5 -61.5t-10 -105q0 -31 5 -49.5t12.5 -28.5t16.5 -13t17 -3 q21 0 41 17t24 55l20 211q-8 6 -17.5 10t-26.5 4z" />
<glyph unicode="A" horiz-adv-x="626" d="M462 0l-44 167h-222l-44 -167h-147l221 720h171l224 -720h-159zM224 269h167l-83 315z" />
<glyph unicode="B" horiz-adv-x="609" d="M267 720q60 0 110 -8t86 -29.5t56.5 -59.5t20.5 -97q0 -26 -7 -50.5t-20 -44.5t-30.5 -33.5t-38.5 -17.5q8 -2 19.5 -5.5t22.5 -8.5q35 -17 56.5 -55.5t21.5 -99.5q0 -60 -18.5 -100.5t-54.5 -65t-89 -35t-121 -10.5h-201v720h187zM230 328v-226h58q24 0 46 4t39 16 t27 33t10 56q0 60 -33 88.5t-84 28.5h-63zM230 618v-194h53q15 0 33.5 3t35 13.5t27.5 30.5t11 55q0 26 -10 43.5t-26 28.5t-35.5 15.5t-38.5 4.5h-50z" />
<glyph unicode="C" horiz-adv-x="603" d="M327 94q45 0 70.5 33t29.5 85l141 -15q-5 -34 -20 -71.5t-44.5 -68.5t-74 -51.5t-107.5 -20.5q-48 0 -95 15.5t-84 57.5t-60 115t-23 187q0 112 23.5 185t61.5 115t87.5 58.5t100.5 16.5q55 0 95.5 -18.5t68.5 -47.5t43.5 -65t21.5 -71l-139 -17q-4 24 -10.5 44t-17.5 35 t-27 23.5t-38 8.5q-23 0 -43 -12t-36 -42t-25 -82t-9 -131q0 -80 8.5 -131.5t23 -81.5t34.5 -41.5t44 -11.5z" />
<glyph unicode="D" horiz-adv-x="646" d="M267 720q64 0 122 -15.5t101.5 -56t69.5 -110t26 -178.5t-26 -178.5t-69.5 -110t-101 -56t-120.5 -15.5h-189v720h187zM230 612v-503h39q30 0 59.5 9.5t53 36.5t38 76t14.5 129q0 79 -15 128.5t-38.5 77t-53.5 37t-60 9.5h-37z" />
<glyph unicode="E" horiz-adv-x="515" d="M435 309h-205v-196h235v-113h-385v720h385v-115h-235v-188h205v-108z" />
<glyph unicode="F" horiz-adv-x="489" d="M424 295h-194v-295h-150v720h374v-113h-224v-204h194v-108z" />
<glyph unicode="G" horiz-adv-x="626" d="M552 0h-75l-29 53q-23 -26 -60 -47t-88 -21q-43 0 -85.5 15.5t-77 57.5t-56 115t-21.5 187q0 112 23.5 185t61.5 115t87.5 58.5t101.5 16.5q47 0 84.5 -13.5t65.5 -36.5t47 -54.5t30 -67.5l-137 -17q-10 34 -30.5 58t-61.5 24q-24 0 -44.5 -12t-36.5 -42.5t-25 -82.5 t-9 -131q0 -80 7 -131.5t21.5 -81.5t35.5 -41.5t48 -11.5q32 0 56 14t38 34v172h-86v104h215v-418z" />
<glyph unicode="H" horiz-adv-x="655" d="M575 720v-720h-150v310h-195v-310h-150v720h150v-302h195v302h150z" />
<glyph unicode="I" horiz-adv-x="310" d="M230 720v-720h-150v720h150z" />
<glyph unicode="J" horiz-adv-x="389" d="M164 720h150v-528q0 -42 -8.5 -79.5t-30.5 -66t-60.5 -45t-97.5 -16.5q-28 0 -58.5 4.5t-48.5 10.5v112q17 -5 37 -8t34 -3q18 0 33 3.5t26.5 14t17.5 30t6 51.5v520z" />
<glyph unicode="K" horiz-adv-x="619" d="M426 0l-196 313v-313h-150v720h150v-300l183 300h158l-216 -337l254 -383h-183z" />
<glyph unicode="L" horiz-adv-x="502" d="M230 720v-602h257v-118h-407v720h150z" />
<glyph unicode="M" horiz-adv-x="822" d="M352 0l-145 509v-509h-127v720h186l146 -523l140 523h190v-720h-137v509l-141 -509h-112z" />
<glyph unicode="N" horiz-adv-x="668" d="M588 720v-720h-178l-204 523v-523h-126v720h191l192 -516v516h125z" />
<glyph unicode="O" horiz-adv-x="683" d="M60 360q0 105 21.5 176.5t59 115.5t89 63.5t111.5 19.5t111.5 -19.5t89.5 -63.5t59.5 -115.5t21.5 -176.5t-21.5 -176.5t-59 -115.5t-89 -63.5t-112.5 -19.5t-112.5 19.5t-89 63.5t-58.5 115.5t-21 176.5zM213 360q0 -76 9 -127t25.5 -81.5t40.5 -43.5t53 -13t53 13 t41 44t26 82t9 126t-10 126t-27 82t-41 44.5t-51 13.5t-50.5 -13t-41 -44t-27 -82t-9.5 -127z" />
<glyph unicode="P" horiz-adv-x="578" d="M273 720q56 0 106 -9.5t87.5 -35.5t59.5 -72.5t22 -120.5t-22.5 -120.5t-59.5 -72.5t-86 -35.5t-101 -9.5h-49v-244h-150v720h193zM230 613v-262h51q19 0 39 5t36 19t26 39.5t10 67.5t-9.5 67.5t-26 39.5t-37.5 19t-44 5h-45z" />
<glyph unicode="Q" horiz-adv-x="683" d="M60 360q0 105 21.5 176.5t59 115.5t89 63.5t111.5 19.5t111.5 -19.5t89.5 -63.5t59.5 -115.5t21.5 -176.5q0 -80 -13.5 -141.5t-37.5 -105.5t-58 -71.5t-74 -39.5l158 -12v-123l-274 62v56q-57 3 -105.5 24t-84 65.5t-55 114.5t-19.5 171zM213 360q0 -76 9 -127 t25.5 -81.5t40.5 -43.5t53 -13t53 13t41 44t26 82t9 126t-10 126t-27 82t-41 44.5t-51 13.5t-50.5 -13t-41 -44t-27 -82t-9.5 -127z" />
<glyph unicode="R" horiz-adv-x="603" d="M419 0l-141 267h-48v-267h-150v720h198q57 0 106 -11.5t85 -38t56.5 -69.5t20.5 -107q0 -41 -9.5 -72.5t-26 -55t-39.5 -40t-50 -28.5l172 -298h-174zM230 612v-238h56q18 0 36.5 6t33.5 19.5t24.5 36.5t9.5 58q0 37 -9 60.5t-24.5 36t-35.5 17t-41 4.5h-50z" />
<glyph unicode="S" horiz-adv-x="587" d="M292 629q-36 0 -62.5 -17.5t-26.5 -58.5q0 -14 3 -26.5t13.5 -25t31.5 -25.5t58 -27q47 -18 88.5 -39t72.5 -49.5t49 -65.5t18 -88q0 -44 -13.5 -84t-43.5 -70.5t-77.5 -49t-115.5 -18.5q-65 0 -110 18.5t-74 45.5t-44 58t-19 56l141 20q2 -17 10.5 -33.5t22.5 -29 t33.5 -20t42.5 -7.5q16 0 33 4.5t31 15t22.5 27.5t8.5 43q0 29 -13 48.5t-36 34.5t-55 28.5t-71 31.5q-45 20 -75 42t-48.5 47.5t-26.5 55t-8 65.5q0 44 16.5 80.5t47.5 63t76.5 41t103.5 14.5q59 0 100.5 -16t68.5 -40.5t42 -54t21 -55.5l-139 -25q-5 33 -30 59t-67 26z " />
<glyph unicode="T" horiz-adv-x="544" d="M524 602h-178v-602h-150v602h-176v118h504v-118z" />
<glyph unicode="U" horiz-adv-x="643" d="M225 720v-506q0 -38 9 -61t23 -36t32 -17.5t35 -4.5t35 4.5t32.5 17.5t23.5 36t9 61v506h144v-497q0 -118 -62 -178t-183 -60t-184.5 60t-63.5 178v497h150z" />
<glyph unicode="V" horiz-adv-x="585" d="M575 720l-189 -720h-189l-187 720h157l129 -594l133 594h146z" />
<glyph unicode="W" horiz-adv-x="828" d="M803 720l-110 -720h-191l-89 564l-91 -564h-187l-110 720h152l64 -568l85 568h185l84 -566l74 566h134z" />
<glyph unicode="X" horiz-adv-x="607" d="M384 391l203 -391h-177l-116 245l-123 -245h-151l206 374l-188 346h174l104 -211l113 211h142z" />
<glyph unicode="Y" horiz-adv-x="562" d="M557 720l-204 -432v-288h-140v288l-208 432h162l120 -289l130 289h140z" />
<glyph unicode="Z" horiz-adv-x="555" d="M208 109h287v-109h-450v117l296 494h-273v109h437v-114z" />
<glyph unicode="[" horiz-adv-x="340" d="M293 -170h-238v980h238v-103h-105v-774h105v-103z" />
<glyph unicode="\" horiz-adv-x="340" d="M11 730h133l185 -820h-133z" />
<glyph unicode="]" horiz-adv-x="340" d="M47 -67h105v774h-105v103h238v-980h-238v103z" />
<glyph unicode="^" horiz-adv-x="500" d="M187 720h130l153 -320h-130l-88 223l-92 -223h-130z" />
<glyph unicode="_" horiz-adv-x="500" d="M-2 -150v118h504v-118h-504z" />
<glyph unicode="`" horiz-adv-x="317" d="M287 598h-105l-152 137h157z" />
<glyph unicode="a" horiz-adv-x="545" d="M386 0l-31 58q-21 -29 -56.5 -48.5t-90.5 -19.5q-27 0 -56.5 9t-54.5 29t-41 52t-16 78q0 41 16 72.5t43.5 54t63.5 35.5t77 18l95 13v33q0 78 -67 78q-28 0 -48.5 -16.5t-25.5 -51.5l-135 20q8 25 23.5 50.5t41.5 45.5t63.5 32.5t90.5 12.5q94 0 145.5 -45t51.5 -144 v-366h-89zM262 89q36 0 73 25v154l-57 -9q-45 -8 -72 -27t-27 -59q0 -26 7.5 -42.5t19.5 -25.5t27 -12.5t29 -3.5z" />
<glyph unicode="b" horiz-adv-x="558" d="M70 0v735h140v-236q24 26 55.5 41t76.5 15q30 0 59 -12t52 -43.5t37.5 -86t14.5 -139.5q0 -149 -49 -216.5t-143 -67.5q-43 0 -72.5 16.5t-47.5 42.5l-38 -49h-85zM284 449q-22 0 -40 -8.5t-34 -22.5v-309q26 -23 62 -23q23 0 40.5 7t29 28t17.5 58.5t6 99.5 q0 54 -7 87.5t-18 51.5t-25.5 24.5t-30.5 6.5z" />
<glyph unicode="c" horiz-adv-x="528" d="M280 457q-15 0 -29.5 -6t-26.5 -25.5t-19 -56t-7 -97.5t8 -97t20 -55.5t27 -25.5t29 -6q19 0 32.5 8t22 21t13 30.5t6.5 36.5l138 -16q-6 -32 -20 -63.5t-39.5 -57t-63.5 -41.5t-91 -16q-45 0 -86 13t-72.5 45.5t-50 87.5t-18.5 139q0 77 17 130.5t47.5 86.5t72 48 t89.5 15q57 0 95.5 -16.5t62.5 -42.5t36 -57t15 -59l-133 -20q-4 97 -75 97z" />
<glyph unicode="d" horiz-adv-x="563" d="M53 271q0 149 49 216.5t143 67.5q36 0 62.5 -11.5t45.5 -30.5v222h140v-735h-88l-38 66q-25 -35 -61 -55.5t-90 -20.5q-30 0 -59 12t-52 43.5t-37.5 86t-14.5 139.5zM274 96q23 0 42.5 9.5t36.5 23.5v306q-14 11 -30.5 17.5t-36.5 6.5q-23 0 -40.5 -7t-29 -28t-17.5 -59 t-6 -99q0 -54 6.5 -87.5t18 -51.5t26 -24.5t30.5 -6.5z" />
<glyph unicode="e" horiz-adv-x="546" d="M287 91q34 0 53.5 19t25.5 48l127 -20q-8 -27 -24 -53.5t-42 -47.5t-62.5 -34t-85.5 -13q-46 0 -87 15t-72 48t-49 86.5t-18 130.5q0 79 17.5 133.5t48.5 88t72 48.5t88 15q64 0 106 -21.5t67.5 -63.5t36 -102.5t10.5 -138.5h-303q3 -42 11.5 -69t20.5 -42.5t27 -21 t32 -5.5zM283 465q-17 0 -32 -5t-27 -20.5t-20 -44t-10 -74.5h174q-1 42 -7.5 70t-18 44.5t-26.5 23t-33 6.5z" />
<glyph unicode="f" horiz-adv-x="352" d="M372 629q-19 5 -38 7.5t-34 2.5q-35 0 -50 -14t-15 -49v-36h111v-100h-111v-440h-140v440h-80v100h80v30q0 47 12 80.5t33.5 54.5t51.5 30.5t66 9.5q37 0 65.5 -5t48.5 -10v-101z" />
<glyph unicode="g" horiz-adv-x="542" d="M519 506l-103 7q33 -23 53.5 -60.5t20.5 -89.5q0 -42 -17 -76.5t-47 -59t-70.5 -37.5t-86.5 -13t-89 13q-5 -17 -5 -25q0 -19 21.5 -27.5t82.5 -12.5q119 -8 177.5 -45t58.5 -120q0 -78 -65.5 -120t-186.5 -42q-109 0 -164 37t-55 100q0 35 17.5 60.5t47.5 45.5 q-35 29 -35 80q0 61 53 93q-35 22 -57.5 58.5t-22.5 90.5t19 90.5t50 59t71.5 32.5t83.5 10q18 0 36 -3v38l212 24v-108zM185 363q0 -29 9 -47.5t21.5 -29.5t27 -15t26.5 -4t26 4t27 14.5t21.5 29t8.5 48.5q0 28 -7 47.5t-18.5 31.5t-26.5 17.5t-31 5.5t-31 -5t-27 -16.5 t-19 -31t-7 -49.5zM251 0q-22 2 -40.5 4t-35.5 7q-5 -11 -8.5 -22.5t-3.5 -23.5q0 -85 104 -85q54 0 79 16.5t25 45.5t-27 41t-93 17z" />
<glyph unicode="h" horiz-adv-x="583" d="M70 735h140v-240q25 29 58 44.5t78 15.5q37 0 67.5 -11t52.5 -34.5t34.5 -60.5t12.5 -89v-360h-140v364q0 45 -15.5 67t-60.5 22q-26 0 -47.5 -11.5t-39.5 -28.5v-413h-140v735z" />
<glyph unicode="i" horiz-adv-x="280" d="M64 610v125h152v-125h-152zM70 0v540h140v-540h-140z" />
<glyph unicode="j" horiz-adv-x="282" d="M63 610v125h152v-125h-152zM-45 -50q13 -3 29.5 -5.5t28.5 -2.5q29 0 43 12t14 45v541h140v-544q0 -79 -42.5 -120t-118.5 -41q-23 0 -49.5 4.5t-44.5 10.5v100z" />
<glyph unicode="k" horiz-adv-x="557" d="M70 0v735h140v-402l159 207h150l-185 -226l213 -314h-167l-170 262v-262h-140z" />
<glyph unicode="l" horiz-adv-x="280" d="M70 735h140v-735h-140v735z" />
<glyph unicode="m" horiz-adv-x="860" d="M70 0v540h95l30 -65q24 38 58.5 59t85.5 21q48 0 83.5 -19.5t55.5 -61.5q26 38 63.5 59.5t88.5 21.5q74 0 117 -45.5t43 -149.5v-360h-140v364q0 45 -12 67t-57 22q-24 0 -45 -14t-40 -34q3 -21 3 -45v-360h-140v364q0 45 -12 67t-57 22q-23 0 -43 -12t-37 -31v-410h-140 z" />
<glyph unicode="n" horiz-adv-x="582" d="M70 0v540h95l30 -63q26 37 62.5 57.5t87.5 20.5q37 0 67.5 -11t52.5 -34.5t34.5 -60.5t12.5 -89v-360h-140v364q0 45 -15.5 67t-60.5 22q-26 0 -47 -11t-39 -28v-414h-140z" />
<glyph unicode="o" horiz-adv-x="585" d="M53 270q0 83 21 138t55 87.5t77 46t87 13.5t87 -13t76.5 -45.5t54.5 -87.5t21 -139t-21 -138t-54.5 -85.5t-76.5 -44t-87 -12.5t-87 12.5t-77 44.5t-55 86t-21 137zM197 270q0 -57 6.5 -92.5t19.5 -56t30.5 -27.5t40.5 -7q22 0 40 7t30 27t18.5 55.5t6.5 93.5t-6.5 94.5 t-19 57.5t-30.5 28.5t-40 7.5q-23 0 -40.5 -8t-30 -29t-19 -57.5t-6.5 -93.5z" />
<glyph unicode="p" horiz-adv-x="563" d="M70 -170v710h95l28 -61q26 35 63 55.5t91 20.5q30 0 59 -12t52 -43.5t37.5 -86t14.5 -139.5q0 -149 -49 -216.5t-143 -67.5q-37 0 -63.5 11.5t-44.5 31.5v-203h-140zM289 449q-24 0 -43 -10t-36 -26v-299q14 -12 30 -20t37 -8q23 0 40.5 7t29 28t17.5 58.5t6 99.5 q0 54 -7 87.5t-18 51.5t-25.5 24.5t-30.5 6.5z" />
<glyph unicode="q" horiz-adv-x="568" d="M53 271q0 149 49 216.5t143 67.5q51 0 81.5 -17t47.5 -43l39 45h85v-710h-140v227q-26 -31 -60 -49t-82 -18q-30 0 -59 12t-52 43.5t-37.5 86t-14.5 139.5zM274 96q24 0 45 10.5t39 26.5v299q-15 11 -32.5 19t-39.5 8q-23 0 -40.5 -7t-29 -28t-17.5 -59t-6 -99 q0 -54 6.5 -87.5t18 -51.5t26 -24.5t30.5 -6.5z" />
<glyph unicode="r" horiz-adv-x="357" d="M70 0v540h95l30 -77q20 42 49 64.5t64 22.5q21 0 34 -4v-136q-9 3 -19 4.5t-24 1.5q-27 0 -49.5 -17.5t-39.5 -44.5v-354h-140z" />
<glyph unicode="s" horiz-adv-x="514" d="M251 -10q-47 0 -84.5 12.5t-64 32.5t-43 46t-21.5 52l135 27q5 -33 26.5 -52t53.5 -19t51 13.5t19 41.5q0 15 -6.5 25.5t-20 19t-33.5 15.5t-48 16q-37 11 -66.5 24.5t-50.5 33.5t-32 47.5t-11 66.5q0 41 15 71.5t42 51t64.5 30.5t82.5 10q48 0 83.5 -12.5t59.5 -32.5 t38.5 -44.5t20.5 -48.5l-131 -26q-5 28 -21 47t-51 19q-28 0 -45.5 -13.5t-17.5 -40.5q0 -17 7.5 -27.5t20 -17.5t30.5 -12.5t39 -12.5q34 -11 65.5 -23t55 -30t37.5 -45.5t14 -70.5q0 -45 -16 -78t-44.5 -54t-67.5 -31.5t-85 -10.5z" />
<glyph unicode="t" horiz-adv-x="365" d="M340 5q-19 -5 -43.5 -8.5t-47.5 -3.5q-34 0 -62 9t-48.5 28t-32 49t-11.5 72v289h-80v100h81l9 130h130v-130h104v-100h-104v-294q0 -16 5 -25.5t12.5 -15t17 -7.5t18.5 -2q11 0 26 2t26 4v-97z" />
<glyph unicode="u" horiz-adv-x="575" d="M210 540v-356q0 -45 14 -68.5t59 -23.5q25 0 45 11t37 28v409h140v-540h-95l-31 65q-23 -35 -58.5 -55t-86.5 -20q-74 0 -119 48t-45 152v350h140z" />
<glyph unicode="v" horiz-adv-x="512" d="M507 540l-160 -540h-182l-160 540h151l106 -427l103 427h142z" />
<glyph unicode="w" horiz-adv-x="788" d="M773 540l-125 -540h-179l-74 400l-88 -400h-174l-118 540h142l70 -425l86 425h174l73 -423l84 423h129z" />
<glyph unicode="x" horiz-adv-x="541" d="M347 299l179 -299h-167l-99 182l-100 -182h-145l172 286l-159 254h162l85 -143l81 143h137z" />
<glyph unicode="y" horiz-adv-x="511" d="M340 -15q-12 -39 -26 -67.5t-34 -47t-48.5 -27t-69.5 -8.5q-20 0 -46 3.5t-44 8.5v100q18 -5 38 -7t31 -2q36 0 52 13.5t21 48.5h-46l-163 540h147l102 -428l116 428h136z" />
<glyph unicode="z" horiz-adv-x="495" d="M201 106h239v-106h-405v117l253 317h-234v106h396v-117z" />
<glyph unicode="{" horiz-adv-x="340" d="M22 378q36 0 52.5 23t16.5 65v157q0 62 14.5 99t42.5 56.5t68.5 25.5t93.5 6v-98q-22 0 -38.5 -2.5t-27.5 -11t-16.5 -24t-5.5 -41.5v-165q0 -35 -5.5 -60t-16.5 -42t-27 -28t-37 -18q42 -14 64 -46.5t22 -101.5v-165q0 -26 5.5 -41.5t16.5 -24t27.5 -11t38.5 -2.5v-98 q-53 0 -93.5 6t-68.5 25.5t-42.5 56.5t-14.5 99v157q0 42 -16.5 65.5t-52.5 23.5v115z" />
<glyph unicode="|" horiz-adv-x="320" d="M226 800v-920h-132v920h132z" />
<glyph unicode="}" horiz-adv-x="340" d="M318 263q-36 0 -52.5 -23.5t-16.5 -65.5v-157q0 -62 -14.5 -99t-42.5 -56.5t-69 -25.5t-93 -6v98q22 0 38.5 2.5t27.5 11t16.5 24t5.5 41.5v165q0 69 22 101.5t64 46.5q-21 7 -37 18t-27 28t-16.5 42t-5.5 60v165q0 26 -5.5 41.5t-16.5 24t-27.5 11t-38.5 2.5v98 q52 0 93 -6t69 -25.5t42.5 -56.5t14.5 -99v-157q0 -42 16.5 -65t52.5 -23v-115z" />
<glyph unicode="~" d="M174 290q-36 0 -61.5 -12t-47.5 -31v118q19 15 52 27.5t68 12.5q31 0 54 -8.5t43 -18t39.5 -18t43.5 -8.5q36 0 62 12t48 31v-118q-19 -15 -52 -27.5t-68 -12.5q-31 0 -54 8.5t-43.5 18t-40 18t-43.5 8.5z" />
<glyph unicode="&#xa1;" horiz-adv-x="270" d="M210 540v-140h-150v140h150zM193 300l15 -480h-146l15 480h116z" />
<glyph unicode="&#xa2;" d="M232 -6q-36 6 -68 24t-56 51t-38 83.5t-14 122.5q0 66 13 115t36.5 82.5t55.5 52.5t71 26v119h102v-120q42 -8 70.5 -26t46.5 -42t27.5 -50.5t12.5 -51.5l-133 -20q-4 97 -75 97q-15 0 -29.5 -6t-26.5 -25.5t-19 -56t-7 -97.5t8 -97t20 -55.5t27 -25.5t29 -6q19 0 32.5 8 t22 21t13 30.5t6.5 36.5l138 -16q-5 -28 -16.5 -55.5t-31 -51.5t-48 -41.5t-67.5 -24.5v-110h-102v109z" />
<glyph unicode="&#xa3;" d="M457 329h-186v-110q0 -42 -14.5 -67.5t-40.5 -41.5h276v-110h-452v110h4q38 2 60 29t22 69v121h-76v105h76v38q0 238 205 238q73 0 121 -39.5t63 -100.5l-130 -24q-9 32 -21 45.5t-34 13.5q-14 0 -24.5 -5.5t-18.5 -20.5t-12 -41t-4 -66v-38h186v-105z" />
<glyph unicode="&#xa4;" horiz-adv-x="600" d="M94 206q-14 26 -22 59t-8 75q0 80 28 132l-64 64l74 74l58 -58q32 23 68 33t71 10t71.5 -10.5t68.5 -33.5l59 59l74 -74l-66 -66q13 -26 20 -58.5t7 -71.5q0 -80 -29 -133l68 -67l-74 -74l-64 63q-31 -20 -66 -29.5t-69 -9.5t-69 9t-66 29l-62 -62l-74 74zM190 340 q0 -45 10.5 -74.5t26.5 -47t35.5 -24.5t37.5 -7t37.5 7t35 24.5t25.5 47t10 74.5t-10.5 75t-26.5 48t-35 26t-37 8t-37 -8t-35 -26t-26.5 -48t-10.5 -75z" />
<glyph unicode="&#xa5;" d="M202 0v120h-120v93h120v64h-120v93h83l-146 330h154l103 -287l109 287h136l-144 -330h85v-93h-120v-64h120v-93h-120v-120h-140z" />
<glyph unicode="&#xa6;" horiz-adv-x="320" d="M226 800v-390h-132v390h132zM226 270v-390h-132v390h132z" />
<glyph unicode="&#xa7;" d="M480 319q0 -45 -19 -77.5t-51 -53.5q26 -20 40 -49.5t14 -75.5q0 -79 -55.5 -121t-145.5 -42q-43 0 -76.5 11.5t-58 29.5t-40.5 41.5t-24 47.5l128 26q5 -28 24 -44.5t48 -16.5q28 0 45.5 15t17.5 42q0 17 -6.5 28t-18.5 19t-29 14t-38 13q-35 11 -66.5 22.5t-55.5 29.5 t-38.5 44.5t-14.5 68.5q0 45 19 77t50 54q-26 20 -39.5 49.5t-13.5 75.5q0 41 17.5 71.5t46 51t65 30.5t74.5 10q45 0 79 -11.5t58 -29.5t39 -41.5t23 -47.5l-128 -26q-5 28 -24 44.5t-48 16.5q-28 0 -46.5 -15t-18.5 -42q0 -33 25 -47t67 -28q34 -11 66 -23t56 -29.5 t38.5 -44t14.5 -67.5zM339 299q0 16 -7.5 27.5t-21 20t-32.5 15t-42 13.5q-16 -12 -25.5 -29.5t-9.5 -34.5t7.5 -28.5t21 -19.5t33 -14.5t43.5 -13.5q17 12 25 29t8 35z" />
<glyph unicode="&#xa8;" horiz-adv-x="419" d="M30 610v115h132v-115h-132zM257 610v115h132v-115h-132z" />
<glyph unicode="&#xa9;" horiz-adv-x="843" d="M427 228q25 0 37.5 16t13.5 41l91 -9q-2 -18 -10.5 -39t-26 -39t-44.5 -30.5t-65 -12.5q-32 0 -60 9.5t-49.5 33t-34 63.5t-12.5 100q0 62 12.5 102t34.5 63t51.5 32t62.5 9q35 0 60 -12t41.5 -29.5t25 -38t10.5 -36.5l-90 -9q-2 23 -12.5 38t-35.5 15q-12 0 -22.5 -5.5 t-18.5 -20t-12.5 -40.5t-4.5 -68q0 -40 5 -65.5t13 -40.5t18.5 -21t21.5 -6zM173 360q0 -81 20.5 -135.5t55 -87t79.5 -46.5t93 -14t92.5 14t79 46.5t55.5 87t21 135.5t-21 135.5t-55.5 87t-79 46.5t-92.5 14t-93 -14t-79.5 -46.5t-55 -87t-20.5 -135.5zM783 360 q0 -101 -32 -172.5t-83 -116.5t-116 -65.5t-131 -20.5t-131 20.5t-116 65.5t-83 116.5t-32 172.5t32 172.5t83 116.5t116 65.5t131 20.5t131 -20.5t116 -65.5t83 -116.5t32 -172.5z" />
<glyph unicode="&#xaa;" horiz-adv-x="500" d="M339 318l-28 48q-19 -24 -49 -39t-72 -15q-25 0 -48.5 6.5t-41.5 21t-29 37t-11 55.5q0 65 45 96t119 39l74 9v30q0 26 -14.5 38.5t-34.5 12.5q-17 0 -32.5 -9t-23.5 -34l-111 15q6 20 19.5 39t34.5 34t50.5 24t67.5 9q73 0 119.5 -34.5t46.5 -107.5v-275h-81zM80 0v115 h360v-115h-360zM235 392q31 0 63 18v105l-48 -6q-13 -2 -25.5 -5.5t-22 -11t-15.5 -18.5t-6 -28q0 -32 17 -43t37 -11z" />
<glyph unicode="&#xab;" d="M40 326l135 205h100l-92 -208l82 -222h-100zM255 326l135 205h100l-92 -208l82 -222h-100z" />
<glyph unicode="&#xac;" d="M356 141v120h-291v120h410v-240h-119z" />
<glyph unicode="&#xad;" horiz-adv-x="405" d="M50 261v121h305v-121h-305z" />
<glyph unicode="&#xae;" horiz-adv-x="611" d="M541 493q0 -68 -21 -114t-55 -74.5t-76.5 -41t-84.5 -12.5t-84.5 12.5t-76.5 41t-55 74.5t-21 114q0 67 21 113.5t55 75t76.5 41t84.5 12.5t84.5 -12.5t76.5 -41t55 -75t21 -113.5zM146 493q0 -53 13.5 -87t35.5 -54.5t50.5 -28.5t58.5 -8t58.5 8t50.5 28.5t35.5 54.5 t13.5 87q0 52 -13.5 86.5t-35.5 55t-50.5 28.5t-58.5 8t-58.5 -8t-50.5 -28.5t-35.5 -55t-13.5 -86.5zM337 373l-44 89h-12v-89h-62v255h80q48 0 73.5 -20t25.5 -62q0 -53 -44 -73l56 -100h-73zM281 580v-69h20q32 0 32 35q0 34 -34 34h-18z" />
<glyph unicode="&#xaf;" horiz-adv-x="360" d="M30 634v101h300v-101h-300z" />
<glyph unicode="&#xb0;" horiz-adv-x="355" d="M30 566q0 72 41 108t107 36t106.5 -36t40.5 -108q0 -35 -11.5 -61.5t-31 -44.5t-46.5 -27t-58 -9t-58 9t-47 27t-31.5 44.5t-11.5 61.5zM131 566q0 -40 14.5 -54t32.5 -14t32.5 14.5t14.5 53.5t-14.5 54.5t-32.5 15.5t-32.5 -15t-14.5 -55z" />
<glyph unicode="&#xb1;" d="M206 262h-141v118h141v141h128v-141h141v-118h-141v-96h-128v96zM65 0v120h410v-120h-410z" />
<glyph unicode="&#xb2;" horiz-adv-x="380" d="M192 728q-18 0 -29 -12t-15 -31l-102 9q4 19 14.5 40t28.5 37.5t43.5 27.5t60.5 11q27 0 52 -7t44.5 -21t31.5 -36.5t12 -53.5q0 -38 -13 -62t-42 -51l-77 -71h128v-88h-274v88l133 118q17 15 27 29.5t10 37.5q0 16 -8.5 25.5t-24.5 9.5z" />
<glyph unicode="&#xb3;" horiz-adv-x="380" d="M187 494q18 0 29 12.5t11 32.5q0 26 -13.5 36t-36.5 10h-20v74h25q13 0 25.5 8t12.5 29q0 18 -10 26.5t-25 8.5q-17 0 -27 -10.5t-15 -24.5l-100 9q14 51 55.5 78t95.5 27q21 0 44 -5t42 -16.5t31 -31.5t12 -50q0 -26 -13.5 -48.5t-51.5 -31.5q32 -5 55 -29t23 -66 q0 -29 -12.5 -51t-32.5 -37t-45.5 -22.5t-52.5 -7.5q-33 0 -58.5 9t-44 23.5t-29.5 33t-15 38.5l100 9q4 -14 13.5 -23.5t27.5 -9.5z" />
<glyph unicode="&#xb4;" horiz-adv-x="317" d="M130 735h157l-152 -137h-105z" />
<glyph unicode="&#xb5;" horiz-adv-x="575" d="M210 540v-359q0 -45 13.5 -67t58.5 -22q24 0 44.5 6.5t38.5 17.5v424h140v-540h-95l-25 52q-19 -29 -44.5 -45.5t-67.5 -16.5q-28 0 -63 11v-171h-140v710h140z" />
<glyph unicode="&#xb6;" horiz-adv-x="550" d="M327 700v-700h-116v375q-19 0 -48 3.5t-56.5 19.5t-47 48.5t-19.5 90.5q0 55 19.5 87t47 49t56.5 22t48 5h116zM490 700v-700h-116v700h116z" />
<glyph unicode="&#xb7;" horiz-adv-x="315" d="M85 255v135h145v-135h-145z" />
<glyph unicode="&#xb8;" horiz-adv-x="305" d="M275 -142q0 -52 -33.5 -81t-100.5 -29q-31 0 -59.5 9t-51.5 24l37 68q9 -6 25 -12t34 -6q23 0 33 9.5t10 21.5q0 21 -20 31t-56 14l40 153h82l-12 -111q38 -11 55 -36t17 -55z" />
<glyph unicode="&#xb9;" horiz-adv-x="380" d="M63 420v80h89v209l-96 -55v91l92 55h105v-300h70v-80h-260z" />
<glyph unicode="&#xba;" horiz-adv-x="495" d="M60 521q0 62 16 103.5t42.5 66t60.5 34.5t69 10t68.5 -10t60 -34.5t42.5 -65.5t16 -104t-16 -103.5t-42.5 -64.5t-60 -33t-68.5 -9t-69 9.5t-60.5 33.5t-42.5 64.5t-16 102.5zM185 521q0 -41 4.5 -66.5t13 -39.5t20.5 -19.5t26 -5.5t25.5 5.5t19.5 19.5t12.5 39.5 t4.5 66.5q0 40 -4.5 66t-13 41t-20 20.5t-25.5 5.5t-26 -5.5t-20 -20.5t-12.5 -41t-4.5 -66zM77 0v115h348v-115h-348z" />
<glyph unicode="&#xbb;" d="M375 101h-100l82 222l-92 208h100l135 -205zM160 101h-100l82 222l-92 208h100l135 -205z" />
<glyph unicode="&#xbc;" horiz-adv-x="870" d="M64 321v80h89v209l-96 -55v91l92 55h105v-300h70v-80h-260zM766 241v-87h46v-82h-46v-71h-99v71h-154v86l84 223h102l-79 -227h53l11 87h82zM295 -100h-123l448 910h122z" />
<glyph unicode="&#xbd;" horiz-adv-x="870" d="M679 309q-18 0 -29 -12t-15 -31l-102 9q4 19 14.5 40t28.5 37.5t43.5 27.5t60.5 11q27 0 52 -7t44.5 -21t31.5 -36.5t12 -53.5q0 -38 -13 -62t-42 -51l-77 -71h128v-88h-274v88l133 118q17 15 27 29.5t10 37.5q0 16 -8.5 25.5t-24.5 9.5zM287 -100h-123l448 910h122z M57 321v80h89v209l-96 -55v91l92 55h105v-300h70v-80h-260z" />
<glyph unicode="&#xbe;" horiz-adv-x="870" d="M205 395q18 0 29 12.5t11 32.5q0 26 -13.5 36t-36.5 10h-20v74h25q13 0 25.5 8t12.5 29q0 18 -10 26.5t-25 8.5q-17 0 -27 -10.5t-15 -24.5l-100 9q14 51 55.5 78t95.5 27q21 0 44 -5t42 -16.5t31 -31.5t12 -50q0 -26 -13.5 -48.5t-51.5 -31.5q32 -5 55 -29t23 -66 q0 -29 -12.5 -51t-32.5 -37t-45.5 -22.5t-52.5 -7.5q-33 0 -58.5 9t-44 23.5t-29.5 33t-15 38.5l100 9q4 -14 13.5 -23.5t27.5 -9.5zM292 -100h-123l448 910h122zM763 241v-87h46v-82h-46v-71h-99v71h-154v86l84 223h102l-79 -227h53l11 87h82z" />
<glyph unicode="&#xbf;" horiz-adv-x="520" d="M328 540v-140h-150v140h150zM258 -92q30 0 51.5 23.5t26.5 62.5l139 -17q-9 -32 -25 -62.5t-42.5 -55t-65.5 -39.5t-93 -15q-42 0 -79 11t-64.5 33t-44 56t-16.5 80q0 51 21.5 85.5t48 61.5t48 51t21.5 54v63h139v-92q0 -25 -10 -45.5t-24.5 -38.5t-32 -34t-32 -32.5 t-24.5 -34.5t-10 -40q0 -42 20.5 -58.5t47.5 -16.5z" />
<glyph unicode="&#xc0;" horiz-adv-x="626" d="M462 0l-44 167h-222l-44 -167h-147l221 720h171l224 -720h-159zM224 269h167l-83 315zM416 768h-107l-130 117h152z" />
<glyph unicode="&#xc1;" horiz-adv-x="626" d="M462 0l-44 167h-222l-44 -167h-147l221 720h171l224 -720h-159zM224 269h167l-83 315zM272 885h152l-130 -117h-107z" />
<glyph unicode="&#xc2;" horiz-adv-x="626" d="M462 0l-44 167h-222l-44 -167h-147l221 720h171l224 -720h-159zM224 269h167l-83 315zM511 768h-130l-58 50l-57 -50h-131l120 117h136z" />
<glyph unicode="&#xc3;" horiz-adv-x="626" d="M462 0l-44 167h-222l-44 -167h-147l221 720h171l224 -720h-159zM224 269h167l-83 315zM374 758q-24 0 -41 6t-31 13t-27.5 13t-30.5 6t-41.5 -9.5t-46.5 -26.5v100q22 16 46.5 24.5t45.5 8.5q24 0 41 -6t31 -13t27.5 -13t30.5 -6t41.5 9.5t46.5 26.5v-100 q-22 -16 -46.5 -24.5t-45.5 -8.5z" />
<glyph unicode="&#xc4;" horiz-adv-x="626" d="M462 0l-44 167h-222l-44 -167h-147l221 720h171l224 -720h-159zM224 269h167l-83 315zM134 772v108h132v-108h-132zM361 772v108h132v-108h-132z" />
<glyph unicode="&#xc5;" horiz-adv-x="626" d="M182 811q0 57 35 88t98 31t97.5 -31t34.5 -88q0 -32 -13 -56t-36 -39l223 -716h-159l-44 167h-222l-44 -167h-147l220 716q-43 31 -43 95zM224 269h167l-83 315zM280 811q0 -23 10 -34.5t25 -11.5q16 0 25.5 11t9.5 35t-10 36t-25 12t-25 -12.5t-10 -35.5z" />
<glyph unicode="&#xc6;" horiz-adv-x="869" d="M769 309h-233l41 -196h242v-113h-366l-32 167h-220l-55 -167h-141l259 720h525v-115h-315l39 -188h256v-108zM234 269h168l-60 325z" />
<glyph unicode="&#xc7;" horiz-adv-x="603" d="M452 -142q0 -52 -35 -81.5t-102 -29.5q-31 0 -59.5 9t-51.5 24l37 71q9 -6 25 -12t34 -6q23 0 32 8.5t9 20.5q0 21 -19 30.5t-55 13.5l21 81q-44 5 -85 24.5t-73 62.5t-51 112.5t-19 173.5q0 112 23.5 185t61.5 115t87.5 58.5t100.5 16.5q55 0 95.5 -18.5t68.5 -47.5 t43.5 -65t21.5 -71l-139 -17q-4 24 -10.5 44t-17.5 35t-27 23.5t-38 8.5q-23 0 -43 -12t-36 -42t-25 -82t-9 -131q0 -80 8.5 -131.5t23 -81.5t34.5 -41.5t44 -11.5q45 0 70.5 33t29.5 85l141 -15q-4 -29 -16 -61.5t-34 -61.5t-55 -51t-79 -31l-4 -43q38 -11 55 -36t17 -55z " />
<glyph unicode="&#xc8;" horiz-adv-x="515" d="M435 309h-205v-196h235v-113h-385v720h385v-115h-235v-188h205v-108zM345 768h-107l-130 117h152z" />
<glyph unicode="&#xc9;" horiz-adv-x="515" d="M435 309h-205v-196h235v-113h-385v720h385v-115h-235v-188h205v-108zM253 888h152l-130 -117h-107z" />
<glyph unicode="&#xca;" horiz-adv-x="518" d="M435 309h-205v-196h235v-113h-385v720h385v-115h-235v-188h205v-108zM468 768h-130l-58 50l-57 -50h-131l120 117h136z" />
<glyph unicode="&#xcb;" horiz-adv-x="515" d="M435 309h-205v-196h235v-113h-385v720h385v-115h-235v-188h205v-108zM94 772v108h132v-108h-132zM321 772v108h132v-108h-132z" />
<glyph unicode="&#xcc;" horiz-adv-x="310" d="M230 720v-720h-150v720h150zM250 768h-107l-130 117h152z" />
<glyph unicode="&#xcd;" horiz-adv-x="310" d="M230 720v-720h-150v720h150zM133 885h152l-130 -117h-107z" />
<glyph unicode="&#xce;" horiz-adv-x="310" d="M230 720v-720h-150v720h150zM344 768h-130l-58 50l-57 -50h-131l120 117h136z" />
<glyph unicode="&#xcf;" horiz-adv-x="310" d="M230 720v-720h-150v720h150zM-24 772v108h132v-108h-132zM203 772v108h132v-108h-132z" />
<glyph unicode="&#xd0;" horiz-adv-x="656" d="M90 336h-60v110h60v274h187q64 0 122 -15.5t101.5 -56t69.5 -110t26 -178.5t-26 -178.5t-69.5 -110t-101 -56t-120.5 -15.5h-189v336zM240 336v-227h39q30 0 59.5 9.5t53 36.5t38 76t14.5 129q0 79 -15 128.5t-38.5 77t-53.5 37t-60 9.5h-37v-166h125v-110h-125z" />
<glyph unicode="&#xd1;" horiz-adv-x="668" d="M588 720v-720h-178l-204 523v-523h-126v720h191l192 -516v516h125zM399 762q-24 0 -41 6t-31 13t-27.5 13t-30.5 6t-41.5 -9.5t-46.5 -26.5v100q22 16 46.5 24.5t45.5 8.5q24 0 41 -6t31 -13t27.5 -13t30.5 -6t41.5 9.5t46.5 26.5v-100q-22 -16 -46.5 -24.5t-45.5 -8.5z " />
<glyph unicode="&#xd2;" horiz-adv-x="683" d="M60 360q0 105 21.5 176.5t59 115.5t89 63.5t111.5 19.5t111.5 -19.5t89.5 -63.5t59.5 -115.5t21.5 -176.5t-21.5 -176.5t-59 -115.5t-89 -63.5t-112.5 -19.5t-112.5 19.5t-89 63.5t-58.5 115.5t-21 176.5zM213 360q0 -76 9 -127t25.5 -81.5t40.5 -43.5t53 -13t53 13 t41 44t26 82t9 126t-10 126t-27 82t-41 44.5t-51 13.5t-50.5 -13t-41 -44t-27 -82t-9.5 -127zM400 768h-107l-130 117h152z" />
<glyph unicode="&#xd3;" horiz-adv-x="683" d="M60 360q0 105 21.5 176.5t59 115.5t89 63.5t111.5 19.5t111.5 -19.5t89.5 -63.5t59.5 -115.5t21.5 -176.5t-21.5 -176.5t-59 -115.5t-89 -63.5t-112.5 -19.5t-112.5 19.5t-89 63.5t-58.5 115.5t-21 176.5zM213 360q0 -76 9 -127t25.5 -81.5t40.5 -43.5t53 -13t53 13 t41 44t26 82t9 126t-10 126t-27 82t-41 44.5t-51 13.5t-50.5 -13t-41 -44t-27 -82t-9.5 -127zM339 885h152l-130 -117h-107z" />
<glyph unicode="&#xd4;" horiz-adv-x="683" d="M60 360q0 105 21.5 176.5t59 115.5t89 63.5t111.5 19.5t111.5 -19.5t89.5 -63.5t59.5 -115.5t21.5 -176.5t-21.5 -176.5t-59 -115.5t-89 -63.5t-112.5 -19.5t-112.5 19.5t-89 63.5t-58.5 115.5t-21 176.5zM213 360q0 -76 9 -127t25.5 -81.5t40.5 -43.5t53 -13t53 13 t41 44t26 82t9 126t-10 126t-27 82t-41 44.5t-51 13.5t-50.5 -13t-41 -44t-27 -82t-9.5 -127zM539 768h-130l-58 50l-57 -50h-131l120 117h136z" />
<glyph unicode="&#xd5;" horiz-adv-x="683" d="M60 360q0 105 21.5 176.5t59 115.5t89 63.5t111.5 19.5t111.5 -19.5t89.5 -63.5t59.5 -115.5t21.5 -176.5t-21.5 -176.5t-59 -115.5t-89 -63.5t-112.5 -19.5t-112.5 19.5t-89 63.5t-58.5 115.5t-21 176.5zM213 360q0 -76 9 -127t25.5 -81.5t40.5 -43.5t53 -13t53 13 t41 44t26 82t9 126t-10 126t-27 82t-41 44.5t-51 13.5t-50.5 -13t-41 -44t-27 -82t-9.5 -127zM404 760q-24 0 -41 6t-31 13t-27.5 13t-30.5 6t-41.5 -9.5t-46.5 -26.5v100q22 16 46.5 24.5t45.5 8.5q24 0 41 -6t31 -13t27.5 -13t30.5 -6t41.5 9.5t46.5 26.5v-100 q-22 -16 -46.5 -24.5t-45.5 -8.5z" />
<glyph unicode="&#xd6;" horiz-adv-x="683" d="M60 360q0 105 21.5 176.5t59 115.5t89 63.5t111.5 19.5t111.5 -19.5t89.5 -63.5t59.5 -115.5t21.5 -176.5t-21.5 -176.5t-59 -115.5t-89 -63.5t-112.5 -19.5t-112.5 19.5t-89 63.5t-58.5 115.5t-21 176.5zM213 360q0 -76 9 -127t25.5 -81.5t40.5 -43.5t53 -13t53 13 t41 44t26 82t9 126t-10 126t-27 82t-41 44.5t-51 13.5t-50.5 -13t-41 -44t-27 -82t-9.5 -127zM163 772v108h132v-108h-132zM390 772v108h132v-108h-132z" />
<glyph unicode="&#xd7;" d="M270 406l120 120l85 -85l-120 -120l120 -120l-85 -85l-120 120l-120 -120l-85 85l120 120l-120 120l85 85z" />
<glyph unicode="&#xd8;" horiz-adv-x="683" d="M60 360q0 105 21.5 176.5t59 115.5t89 63.5t111.5 19.5q40 0 76 -9l35 94h115l-52 -141q50 -42 79 -119t29 -200q0 -105 -21.5 -176.5t-59 -115.5t-89 -63.5t-112.5 -19.5q-42 0 -79 9l-36 -96h-115l53 145q-48 42 -76 119t-28 198zM470 360q0 60 -6 102.5t-17 73.5 l-158 -429q22 -12 52 -12q29 0 53 13t41 44t26 82t9 126zM213 360q0 -57 5 -97.5t14 -71.5l157 423q-23 12 -48 12q-27 0 -50.5 -13t-41 -44t-27 -82t-9.5 -127z" />
<glyph unicode="&#xd9;" horiz-adv-x="643" d="M225 720v-506q0 -38 9 -61t23 -36t32 -17.5t35 -4.5t35 4.5t32.5 17.5t23.5 36t9 61v506h144v-497q0 -118 -62 -178t-183 -60t-184.5 60t-63.5 178v497h150zM384 768h-107l-130 117h152z" />
<glyph unicode="&#xda;" horiz-adv-x="643" d="M225 720v-506q0 -38 9 -61t23 -36t32 -17.5t35 -4.5t35 4.5t32.5 17.5t23.5 36t9 61v506h144v-497q0 -118 -62 -178t-183 -60t-184.5 60t-63.5 178v497h150zM336 885h152l-130 -117h-107z" />
<glyph unicode="&#xdb;" horiz-adv-x="643" d="M225 720v-506q0 -38 9 -61t23 -36t32 -17.5t35 -4.5t35 4.5t32.5 17.5t23.5 36t9 61v506h144v-497q0 -118 -62 -178t-183 -60t-184.5 60t-63.5 178v497h150zM523 766h-130l-58 50l-57 -50h-131l120 117h136z" />
<glyph unicode="&#xdc;" horiz-adv-x="643" d="M225 720v-506q0 -38 9 -61t23 -36t32 -17.5t35 -4.5t35 4.5t32.5 17.5t23.5 36t9 61v506h144v-497q0 -118 -62 -178t-183 -60t-184.5 60t-63.5 178v497h150zM145 772v108h132v-108h-132zM372 772v108h132v-108h-132z" />
<glyph unicode="&#xdd;" horiz-adv-x="562" d="M557 720l-204 -432v-288h-140v288l-208 432h162l120 -289l130 289h140zM304 885h152l-130 -117h-107z" />
<glyph unicode="&#xde;" horiz-adv-x="608" d="M230 720v-110h43q56 0 106 -9.5t87.5 -35.5t59.5 -72.5t22 -120.5t-22.5 -120.5t-59.5 -72.5t-86 -35.5t-101 -9.5h-49v-134h-150v720h150zM230 503v-262h51q19 0 39 5t36 19t26 39.5t10 67.5t-9.5 67.5t-26 39.5t-37.5 19t-44 5h-45z" />
<glyph unicode="&#xdf;" horiz-adv-x="612" d="M577 175q0 -43 -14 -77t-39.5 -58t-60.5 -37t-77 -13q-33 0 -58 7.5t-44 19t-32 25.5t-21 27l82 74q10 -17 25.5 -31t41.5 -14q27 0 44.5 18.5t17.5 52.5q0 16 -3.5 28.5t-11.5 24t-22.5 22.5t-35.5 23q-17 10 -33.5 21.5t-29.5 26.5t-21 35t-8 47q0 46 24.5 78.5 t62.5 43.5q4 13 6.5 30.5t2.5 31.5q0 30 -21 50.5t-57 20.5t-60 -21t-24 -79v-552h-141v533q0 105 61.5 158.5t163.5 53.5q40 0 76 -11t63.5 -32t44 -52.5t16.5 -72.5q0 -50 -24 -105q-32 -5 -51.5 -16.5t-19.5 -38.5q0 -11 3 -19t12 -16.5t25 -18.5t42 -25q51 -29 73 -70 t22 -93z" />
<glyph unicode="&#xe0;" horiz-adv-x="545" d="M386 0l-31 58q-21 -29 -56.5 -48.5t-90.5 -19.5q-27 0 -56.5 9t-54.5 29t-41 52t-16 78q0 41 16 72.5t43.5 54t63.5 35.5t77 18l95 13v33q0 78 -67 78q-28 0 -48.5 -16.5t-25.5 -51.5l-135 20q8 25 23.5 50.5t41.5 45.5t63.5 32.5t90.5 12.5q94 0 145.5 -45t51.5 -144 v-366h-89zM262 89q36 0 73 25v154l-57 -9q-45 -8 -72 -27t-27 -59q0 -26 7.5 -42.5t19.5 -25.5t27 -12.5t29 -3.5zM373 598h-105l-152 137h157z" />
<glyph unicode="&#xe1;" horiz-adv-x="545" d="M386 0l-31 58q-21 -29 -56.5 -48.5t-90.5 -19.5q-27 0 -56.5 9t-54.5 29t-41 52t-16 78q0 41 16 72.5t43.5 54t63.5 35.5t77 18l95 13v33q0 78 -67 78q-28 0 -48.5 -16.5t-25.5 -51.5l-135 20q8 25 23.5 50.5t41.5 45.5t63.5 32.5t90.5 12.5q94 0 145.5 -45t51.5 -144 v-366h-89zM262 89q36 0 73 25v154l-57 -9q-45 -8 -72 -27t-27 -59q0 -26 7.5 -42.5t19.5 -25.5t27 -12.5t29 -3.5zM287 735h157l-152 -137h-105z" />
<glyph unicode="&#xe2;" horiz-adv-x="545" d="M386 0l-31 58q-21 -29 -56.5 -48.5t-90.5 -19.5q-27 0 -56.5 9t-54.5 29t-41 52t-16 78q0 41 16 72.5t43.5 54t63.5 35.5t77 18l95 13v33q0 78 -67 78q-28 0 -48.5 -16.5t-25.5 -51.5l-135 20q8 25 23.5 50.5t41.5 45.5t63.5 32.5t90.5 12.5q94 0 145.5 -45t51.5 -144 v-366h-89zM262 89q36 0 73 25v154l-57 -9q-45 -8 -72 -27t-27 -59q0 -26 7.5 -42.5t19.5 -25.5t27 -12.5t29 -3.5zM454 598h-122l-66 57l-66 -57h-122l120 137h136z" />
<glyph unicode="&#xe3;" horiz-adv-x="545" d="M386 0l-31 58q-21 -29 -56.5 -48.5t-90.5 -19.5q-27 0 -56.5 9t-54.5 29t-41 52t-16 78q0 41 16 72.5t43.5 54t63.5 35.5t77 18l95 13v33q0 78 -67 78q-28 0 -48.5 -16.5t-25.5 -51.5l-135 20q8 25 23.5 50.5t41.5 45.5t63.5 32.5t90.5 12.5q94 0 145.5 -45t51.5 -144 v-366h-89zM262 89q36 0 73 25v154l-57 -9q-45 -8 -72 -27t-27 -59q0 -26 7.5 -42.5t19.5 -25.5t27 -12.5t29 -3.5zM331 612q-24 0 -41 6t-31 13t-27.5 13t-30.5 6t-41.5 -9.5t-46.5 -26.5v100q22 16 46.5 24.5t45.5 8.5q24 0 41 -6t31 -13t27.5 -13t30.5 -6t41.5 9.5 t46.5 26.5v-100q-22 -16 -46.5 -24.5t-45.5 -8.5z" />
<glyph unicode="&#xe4;" horiz-adv-x="545" d="M386 0l-31 58q-21 -29 -56.5 -48.5t-90.5 -19.5q-27 0 -56.5 9t-54.5 29t-41 52t-16 78q0 41 16 72.5t43.5 54t63.5 35.5t77 18l95 13v33q0 78 -67 78q-28 0 -48.5 -16.5t-25.5 -51.5l-135 20q8 25 23.5 50.5t41.5 45.5t63.5 32.5t90.5 12.5q94 0 145.5 -45t51.5 -144 v-366h-89zM262 89q36 0 73 25v154l-57 -9q-45 -8 -72 -27t-27 -59q0 -26 7.5 -42.5t19.5 -25.5t27 -12.5t29 -3.5zM89 610v115h132v-115h-132zM316 610v115h132v-115h-132z" />
<glyph unicode="&#xe5;" horiz-adv-x="545" d="M386 0l-31 58q-21 -29 -56.5 -48.5t-90.5 -19.5q-27 0 -56.5 9t-54.5 29t-41 52t-16 78q0 41 16 72.5t43.5 54t63.5 35.5t77 18l95 13v33q0 78 -67 78q-28 0 -48.5 -16.5t-25.5 -51.5l-135 20q8 25 23.5 50.5t41.5 45.5t63.5 32.5t90.5 12.5q94 0 145.5 -45t51.5 -144 v-366h-89zM262 89q36 0 73 25v154l-57 -9q-45 -8 -72 -27t-27 -59q0 -26 7.5 -42.5t19.5 -25.5t27 -12.5t29 -3.5zM134 691q0 57 35 88t98 31t97.5 -31t34.5 -88t-38 -87t-99 -30t-94.5 30t-33.5 87zM232 691q0 -23 10 -34.5t25 -11.5q16 0 25.5 11t9.5 35t-10 36t-25 12 t-25 -12.5t-10 -35.5z" />
<glyph unicode="&#xe6;" horiz-adv-x="821" d="M562 91q34 0 53.5 19t25.5 48l127 -20q-8 -27 -24 -53.5t-42 -47.5t-62.5 -34t-85.5 -13q-54 0 -94 20.5t-67 65.5q-27 -42 -69 -63t-109 -21q-32 0 -63.5 9t-56.5 28.5t-40 51t-15 77.5q0 41 16 72.5t43.5 54t63.5 35.5t77 18l95 13v33q0 78 -67 78q-28 0 -48.5 -16.5 t-25.5 -51.5l-135 20q8 25 23 50.5t40.5 45.5t63.5 32.5t92 12.5q48 0 82 -14.5t55 -40.5q52 55 139 55q64 0 106 -21.5t67.5 -63.5t36 -102.5t10.5 -138.5h-303q3 -42 11.5 -69t20.5 -42.5t27 -21t32 -5.5zM262 91q16 0 35 6t38 18v153l-57 -9q-45 -6 -72 -27t-27 -59 q0 -26 7.5 -42t19.5 -25t27 -12t29 -3zM558 465q-17 0 -32 -5t-27 -20.5t-20 -44t-10 -74.5h174q-1 42 -7.5 70t-18 44.5t-26.5 23t-33 6.5z" />
<glyph unicode="&#xe7;" horiz-adv-x="528" d="M396 -142q0 -52 -33.5 -81t-100.5 -29q-31 0 -59.5 9t-51.5 24l37 68q9 -6 25 -12t34 -6q23 0 33 9.5t10 21.5q0 21 -20 31t-56 14l22 86q-38 5 -71 22t-58 50t-39.5 84.5t-14.5 125.5q0 77 17 130.5t47.5 86.5t72 48t89.5 15q57 0 95.5 -16.5t62.5 -42.5t36 -57t15 -59 l-133 -20q-4 97 -75 97q-15 0 -29.5 -6t-26.5 -25.5t-19 -56t-7 -97.5t8 -97t20 -55.5t27 -25.5t29 -6q19 0 32.5 8t22 21t13 30.5t6.5 36.5l138 -16q-5 -28 -16.5 -56t-31 -52t-48.5 -41.5t-69 -24.5l-5 -45q38 -11 55 -36t17 -55z" />
<glyph unicode="&#xe8;" horiz-adv-x="546" d="M287 91q34 0 53.5 19t25.5 48l127 -20q-8 -27 -24 -53.5t-42 -47.5t-62.5 -34t-85.5 -13q-46 0 -87 15t-72 48t-49 86.5t-18 130.5q0 79 17.5 133.5t48.5 88t72 48.5t88 15q64 0 106 -21.5t67.5 -63.5t36 -102.5t10.5 -138.5h-303q3 -42 11.5 -69t20.5 -42.5t27 -21 t32 -5.5zM283 465q-17 0 -32 -5t-27 -20.5t-20 -44t-10 -74.5h174q-1 42 -7.5 70t-18 44.5t-26.5 23t-33 6.5zM369 598h-105l-152 137h157z" />
<glyph unicode="&#xe9;" horiz-adv-x="546" d="M287 91q34 0 53.5 19t25.5 48l127 -20q-8 -27 -24 -53.5t-42 -47.5t-62.5 -34t-85.5 -13q-46 0 -87 15t-72 48t-49 86.5t-18 130.5q0 79 17.5 133.5t48.5 88t72 48.5t88 15q64 0 106 -21.5t67.5 -63.5t36 -102.5t10.5 -138.5h-303q3 -42 11.5 -69t20.5 -42.5t27 -21 t32 -5.5zM283 465q-17 0 -32 -5t-27 -20.5t-20 -44t-10 -74.5h174q-1 42 -7.5 70t-18 44.5t-26.5 23t-33 6.5zM287 735h157l-152 -137h-105z" />
<glyph unicode="&#xea;" horiz-adv-x="546" d="M287 91q34 0 53.5 19t25.5 48l127 -20q-8 -27 -24 -53.5t-42 -47.5t-62.5 -34t-85.5 -13q-46 0 -87 15t-72 48t-49 86.5t-18 130.5q0 79 17.5 133.5t48.5 88t72 48.5t88 15q64 0 106 -21.5t67.5 -63.5t36 -102.5t10.5 -138.5h-303q3 -42 11.5 -69t20.5 -42.5t27 -21 t32 -5.5zM283 465q-17 0 -32 -5t-27 -20.5t-20 -44t-10 -74.5h174q-1 42 -7.5 70t-18 44.5t-26.5 23t-33 6.5zM471 598h-122l-66 57l-66 -57h-122l120 137h136z" />
<glyph unicode="&#xeb;" horiz-adv-x="546" d="M287 91q34 0 53.5 19t25.5 48l127 -20q-8 -27 -24 -53.5t-42 -47.5t-62.5 -34t-85.5 -13q-46 0 -87 15t-72 48t-49 86.5t-18 130.5q0 79 17.5 133.5t48.5 88t72 48.5t88 15q64 0 106 -21.5t67.5 -63.5t36 -102.5t10.5 -138.5h-303q3 -42 11.5 -69t20.5 -42.5t27 -21 t32 -5.5zM283 465q-17 0 -32 -5t-27 -20.5t-20 -44t-10 -74.5h174q-1 42 -7.5 70t-18 44.5t-26.5 23t-33 6.5zM103 610v115h132v-115h-132zM330 610v115h132v-115h-132z" />
<glyph unicode="&#xec;" horiz-adv-x="280" d="M70 0v540h140v-540h-140zM244 598h-105l-152 137h157z" />
<glyph unicode="&#xed;" horiz-adv-x="280" d="M70 0v540h140v-540h-140zM136 735h157l-152 -137h-105z" />
<glyph unicode="&#xee;" horiz-adv-x="280" d="M329 598h-122l-66 57l-66 -57h-122l120 137h136zM70 0v540h140v-540h-140z" />
<glyph unicode="&#xef;" horiz-adv-x="280" d="M70 0v540h140v-540h-140zM-38 610v115h132v-115h-132zM189 610v115h132v-115h-132z" />
<glyph unicode="&#xf0;" horiz-adv-x="546" d="M496 330q0 -96 -16 -161t-45.5 -105t-70.5 -57t-91 -17q-47 0 -87 13.5t-69 42.5t-45.5 76t-16.5 114q0 118 49 177.5t130 59.5q37 0 63.5 -11.5t46.5 -30.5q-8 42 -25 72t-40 53l-29 -30h-112l74 78q-26 13 -54 22t-60 17l47 92q32 -6 70.5 -16t78.5 -30l29 31h112 l-71 -74q28 -22 52 -51t42 -68t28 -87.5t10 -109.5zM274 365q-15 0 -29 -6.5t-24.5 -21.5t-17 -40.5t-6.5 -64.5q0 -47 7.5 -75t19 -43t25 -19.5t25.5 -4.5q14 0 27.5 6t24.5 30.5t18 73t8 134.5q-40 31 -78 31z" />
<glyph unicode="&#xf1;" horiz-adv-x="582" d="M70 0v540h95l30 -63q26 37 62.5 57.5t87.5 20.5q37 0 67.5 -11t52.5 -34.5t34.5 -60.5t12.5 -89v-360h-140v364q0 45 -15.5 67t-60.5 22q-26 0 -47 -11t-39 -28v-414h-140zM357 608q-24 0 -41 6t-31 13t-27.5 13t-30.5 6t-41.5 -9.5t-46.5 -26.5v100q22 16 46.5 24.5 t45.5 8.5q24 0 41 -6t31 -13t27.5 -13t30.5 -6t41.5 9.5t46.5 26.5v-100q-22 -16 -46.5 -24.5t-45.5 -8.5z" />
<glyph unicode="&#xf2;" horiz-adv-x="585" d="M53 270q0 83 21 138t55 87.5t77 46t87 13.5t87 -13t76.5 -45.5t54.5 -87.5t21 -139t-21 -138t-54.5 -85.5t-76.5 -44t-87 -12.5t-87 12.5t-77 44.5t-55 86t-21 137zM197 270q0 -57 6.5 -92.5t19.5 -56t30.5 -27.5t40.5 -7q22 0 40 7t30 27t18.5 55.5t6.5 93.5t-6.5 94.5 t-19 57.5t-30.5 28.5t-40 7.5q-23 0 -40.5 -8t-30 -29t-19 -57.5t-6.5 -93.5zM379 598h-105l-152 137h157z" />
<glyph unicode="&#xf3;" horiz-adv-x="585" d="M53 270q0 83 21 138t55 87.5t77 46t87 13.5t87 -13t76.5 -45.5t54.5 -87.5t21 -139t-21 -138t-54.5 -85.5t-76.5 -44t-87 -12.5t-87 12.5t-77 44.5t-55 86t-21 137zM197 270q0 -57 6.5 -92.5t19.5 -56t30.5 -27.5t40.5 -7q22 0 40 7t30 27t18.5 55.5t6.5 93.5t-6.5 94.5 t-19 57.5t-30.5 28.5t-40 7.5q-23 0 -40.5 -8t-30 -29t-19 -57.5t-6.5 -93.5zM315 735h157l-152 -137h-105z" />
<glyph unicode="&#xf4;" horiz-adv-x="585" d="M53 270q0 83 21 138t55 87.5t77 46t87 13.5t87 -13t76.5 -45.5t54.5 -87.5t21 -139t-21 -138t-54.5 -85.5t-76.5 -44t-87 -12.5t-87 12.5t-77 44.5t-55 86t-21 137zM197 270q0 -57 6.5 -92.5t19.5 -56t30.5 -27.5t40.5 -7q22 0 40 7t30 27t18.5 55.5t6.5 93.5t-6.5 94.5 t-19 57.5t-30.5 28.5t-40 7.5q-23 0 -40.5 -8t-30 -29t-19 -57.5t-6.5 -93.5zM482 598h-122l-66 57l-66 -57h-122l120 137h136z" />
<glyph unicode="&#xf5;" horiz-adv-x="585" d="M53 270q0 83 21 138t55 87.5t77 46t87 13.5t87 -13t76.5 -45.5t54.5 -87.5t21 -139t-21 -138t-54.5 -85.5t-76.5 -44t-87 -12.5t-87 12.5t-77 44.5t-55 86t-21 137zM197 270q0 -57 6.5 -92.5t19.5 -56t30.5 -27.5t40.5 -7q22 0 40 7t30 27t18.5 55.5t6.5 93.5t-6.5 94.5 t-19 57.5t-30.5 28.5t-40 7.5q-23 0 -40.5 -8t-30 -29t-19 -57.5t-6.5 -93.5zM359 610q-24 0 -41 6t-31 13t-27.5 13t-30.5 6t-41.5 -9.5t-46.5 -26.5v100q22 16 46.5 24.5t45.5 8.5q24 0 41 -6t31 -13t27.5 -13t30.5 -6t41.5 9.5t46.5 26.5v-100q-22 -16 -46.5 -24.5 t-45.5 -8.5z" />
<glyph unicode="&#xf6;" horiz-adv-x="585" d="M53 270q0 83 21 138t55 87.5t77 46t87 13.5t87 -13t76.5 -45.5t54.5 -87.5t21 -139t-21 -138t-54.5 -85.5t-76.5 -44t-87 -12.5t-87 12.5t-77 44.5t-55 86t-21 137zM197 270q0 -57 6.5 -92.5t19.5 -56t30.5 -27.5t40.5 -7q22 0 40 7t30 27t18.5 55.5t6.5 93.5t-6.5 94.5 t-19 57.5t-30.5 28.5t-40 7.5q-23 0 -40.5 -8t-30 -29t-19 -57.5t-6.5 -93.5zM114 610v115h132v-115h-132zM341 610v115h132v-115h-132z" />
<glyph unicode="&#xf7;" d="M198 51v135h145v-135h-145zM198 456v135h145v-135h-145zM65 261v120h410v-120h-410z" />
<glyph unicode="&#xf8;" horiz-adv-x="585" d="M53 270q0 83 21 138t55 87.5t77 46t87 13.5q20 0 39.5 -2.5t39.5 -8.5l40 89h110l-63 -139q33 -33 53 -86.5t20 -137.5t-21 -138t-54.5 -85.5t-76.5 -44t-87 -12.5q-40 0 -67 7l-44 -99h-112l65 143q-37 32 -59.5 86.5t-22.5 142.5zM197 270q0 -75 10 -111l131 288 q-20 11 -45 11q-23 0 -40.5 -8t-30 -29t-19 -57.5t-6.5 -93.5zM389 270q0 31 -1.5 55.5t-5.5 41.5l-125 -275q17 -5 37 -5q22 0 40 7t30 27t18.5 55.5t6.5 93.5z" />
<glyph unicode="&#xf9;" horiz-adv-x="575" d="M210 540v-356q0 -45 14 -68.5t59 -23.5q25 0 45 11t37 28v409h140v-540h-95l-31 65q-23 -35 -58.5 -55t-86.5 -20q-74 0 -119 48t-45 152v350h140zM374 598h-105l-152 137h157z" />
<glyph unicode="&#xfa;" horiz-adv-x="575" d="M210 540v-356q0 -45 14 -68.5t59 -23.5q25 0 45 11t37 28v409h140v-540h-95l-31 65q-23 -35 -58.5 -55t-86.5 -20q-74 0 -119 48t-45 152v350h140zM299 735h157l-152 -137h-105z" />
<glyph unicode="&#xfb;" horiz-adv-x="575" d="M210 540v-356q0 -45 14 -68.5t59 -23.5q25 0 45 11t37 28v409h140v-540h-95l-31 65q-23 -35 -58.5 -55t-86.5 -20q-74 0 -119 48t-45 152v350h140zM474 592h-122l-66 57l-66 -57h-122l120 137h136z" />
<glyph unicode="&#xfc;" horiz-adv-x="575" d="M210 540v-356q0 -45 14 -68.5t59 -23.5q25 0 45 11t37 28v409h140v-540h-95l-31 65q-23 -35 -58.5 -55t-86.5 -20q-74 0 -119 48t-45 152v350h140zM110 610v115h132v-115h-132zM337 610v115h132v-115h-132z" />
<glyph unicode="&#xfd;" horiz-adv-x="511" d="M340 -15q-12 -39 -26 -67.5t-34 -47t-48.5 -27t-69.5 -8.5q-20 0 -46 3.5t-44 8.5v100q18 -5 38 -7t31 -2q36 0 52 13.5t21 48.5h-46l-163 540h147l102 -428l116 428h136zM288 735h157l-152 -137h-105z" />
<glyph unicode="&#xfe;" horiz-adv-x="563" d="M70 -170v905h140v-236q25 26 58.5 41t78.5 15q30 0 59 -12t52 -43.5t37.5 -86t14.5 -139.5q0 -149 -49 -216.5t-143 -67.5q-37 0 -63.5 11t-44.5 29v-200h-140zM289 449q-24 0 -43 -10t-36 -26v-303q14 -11 30 -17.5t37 -6.5q23 0 40.5 7t29 28t17.5 58.5t6 99.5 q0 54 -7 87.5t-18 51.5t-25.5 24.5t-30.5 6.5z" />
<glyph unicode="&#xff;" horiz-adv-x="511" d="M340 -15q-12 -39 -26 -67.5t-34 -47t-48.5 -27t-69.5 -8.5q-20 0 -46 3.5t-44 8.5v100q18 -5 38 -7t31 -2q36 0 52 13.5t21 48.5h-46l-163 540h147l102 -428l116 428h136zM80 610v115h132v-115h-132zM307 610v115h132v-115h-132z" />
<glyph unicode="&#x131;" horiz-adv-x="280" d="M70 0v540h140v-540h-140z" />
<glyph unicode="&#x152;" horiz-adv-x="918" d="M838 309h-222q-3 -63 -15 -111.5t-31 -84.5h298v-113h-427q-47 -15 -100 -15q-61 0 -112.5 19.5t-89 63.5t-58.5 115.5t-21 176.5t21.5 176.5t59 115.5t89 63.5t111.5 19.5q52 0 99 -15h428v-115h-298q19 -35 30.5 -81.5t15.5 -106.5h222v-108zM213 360q0 -76 9 -127 t25.5 -81.5t40.5 -43.5t53 -13t53 13t41 44t26 82t9 126t-10 126t-27 82t-41 44.5t-51 13.5t-50.5 -13t-41 -44t-27 -82t-9.5 -127z" />
<glyph unicode="&#x153;" horiz-adv-x="882" d="M623 91q34 0 53.5 19t25.5 48l127 -20q-8 -27 -24 -53.5t-42 -47.5t-62.5 -34t-85.5 -13q-48 0 -89 17t-67 55q-29 -41 -74 -56.5t-92 -15.5q-44 0 -87 12.5t-77 44.5t-55 86t-21 137t21 138t55 87.5t77 46t87 13.5q23 0 46.5 -4t45.5 -12.5t40.5 -22.5t32.5 -35 q25 38 67 56t90 18q64 0 106 -21.5t67.5 -63.5t36 -102.5t10.5 -138.5h-303q3 -42 11.5 -69t20.5 -42.5t27 -21t32 -5.5zM197 270q0 -57 6.5 -92.5t19.5 -56t30.5 -27.5t40.5 -7q22 0 40 7t30 27t18.5 55.5t6.5 93.5t-6.5 94.5t-19 57.5t-30.5 28.5t-40 7.5q-23 0 -40.5 -8 t-30 -29t-19 -57.5t-6.5 -93.5zM619 465q-17 0 -32 -5t-27 -20.5t-20 -44t-10 -74.5h174q-1 42 -7.5 70t-18 44.5t-26.5 23t-33 6.5z" />
<glyph unicode="&#x178;" horiz-adv-x="562" d="M557 720l-204 -432v-288h-140v288l-208 432h162l120 -289l130 289h140zM108 772v108h132v-108h-132zM335 772v108h132v-108h-132z" />
<glyph unicode="&#x2c6;" horiz-adv-x="436" d="M406 598h-122l-66 57l-66 -57h-122l120 137h136z" />
<glyph unicode="&#x2da;" horiz-adv-x="325" d="M30 691q0 57 35 88t98 31t97.5 -31t34.5 -88t-38 -87t-99 -30t-94.5 30t-33.5 87zM128 691q0 -23 10 -34.5t25 -11.5q16 0 25.5 11t9.5 35t-10 36t-25 12t-25 -12.5t-10 -35.5z" />
<glyph unicode="&#x2dc;" horiz-adv-x="370" d="M248 610q-24 0 -41 6t-31 13t-27.5 13t-30.5 6t-41.5 -9.5t-46.5 -26.5v100q22 16 46.5 24.5t45.5 8.5q24 0 41 -6t31 -13t27.5 -13t30.5 -6t41.5 9.5t46.5 26.5v-100q-22 -16 -46.5 -24.5t-45.5 -8.5z" />
<glyph unicode="&#x2000;" horiz-adv-x="465" />
<glyph unicode="&#x2001;" horiz-adv-x="930" />
<glyph unicode="&#x2002;" horiz-adv-x="465" />
<glyph unicode="&#x2003;" horiz-adv-x="930" />
<glyph unicode="&#x2004;" horiz-adv-x="310" />
<glyph unicode="&#x2005;" horiz-adv-x="232" />
<glyph unicode="&#x2006;" horiz-adv-x="155" />
<glyph unicode="&#x2007;" horiz-adv-x="155" />
<glyph unicode="&#x2008;" horiz-adv-x="116" />
<glyph unicode="&#x2009;" horiz-adv-x="186" />
<glyph unicode="&#x200a;" horiz-adv-x="51" />
<glyph unicode="&#x2010;" horiz-adv-x="405" d="M50 261v121h305v-121h-305z" />
<glyph unicode="&#x2011;" horiz-adv-x="405" d="M50 261v121h305v-121h-305z" />
<glyph unicode="&#x2012;" horiz-adv-x="405" d="M50 261v121h305v-121h-305z" />
<glyph unicode="&#x2013;" horiz-adv-x="400" d="M0 261v120h400v-120h-400z" />
<glyph unicode="&#x2014;" horiz-adv-x="600" d="M0 261v120h600v-120h-600z" />
<glyph unicode="&#x2018;" horiz-adv-x="260" d="M60 582l60 153h75l-37 -152h42v-125h-140v124z" />
<glyph unicode="&#x2019;" horiz-adv-x="260" d="M200 611l-60 -153h-75l37 152h-42v125h140v-124z" />
<glyph unicode="&#x201a;" horiz-adv-x="260" d="M200 1l-60 -153h-75l37 152h-42v125h140v-124z" />
<glyph unicode="&#x201c;" horiz-adv-x="440" d="M240 582l60 153h75l-37 -152h42v-125h-140v124zM60 582l60 153h75l-37 -152h42v-125h-140v124z" />
<glyph unicode="&#x201d;" horiz-adv-x="440" d="M200 611l-60 -153h-75l37 152h-42v125h140v-124zM380 611l-60 -153h-75l37 152h-42v125h140v-124z" />
<glyph unicode="&#x201e;" horiz-adv-x="440" d="M380 1l-60 -153h-75l37 152h-42v125h140v-124zM200 1l-60 -153h-75l37 152h-42v125h140v-124z" />
<glyph unicode="&#x2022;" horiz-adv-x="315" d="M60 230v185h195v-185h-195z" />
<glyph unicode="&#x2026;" horiz-adv-x="795" d="M60 0v135h145v-135h-145zM325 0v135h145v-135h-145zM590 0v135h145v-135h-145z" />
<glyph unicode="&#x202f;" horiz-adv-x="186" />
<glyph unicode="&#x2039;" horiz-adv-x="315" d="M40 326l125 205h100l-82 -208l72 -222h-100z" />
<glyph unicode="&#x203a;" horiz-adv-x="315" d="M160 101h-100l72 222l-82 208h100l125 -205z" />
<glyph unicode="&#x2044;" horiz-adv-x="270" d="M-27 -100h-123l448 910h122z" />
<glyph unicode="&#x205f;" horiz-adv-x="232" />
<glyph unicode="&#x2074;" horiz-adv-x="380" d="M293 660v-87h46v-82h-46v-71h-99v71h-154v86l84 223h102l-79 -227h53l11 87h82z" />
<glyph unicode="&#x20ac;" d="M422 370h-184v-53h170l-27 -98h-134q7 -41 18.5 -66t25.5 -38.5t28.5 -18t27.5 -4.5q35 0 65.5 11t54.5 23v-107q-18 -11 -55 -22.5t-78 -11.5q-35 0 -71 9.5t-67 35t-55 71t-36 118.5h-104l27 98h69v53h-96l27 98h77q11 73 35 120t56.5 74t71.5 37.5t79 10.5 q54 0 91 -14t63 -33l-28 -105q-32 24 -60 35t-59 11q-17 0 -33 -6t-30 -21.5t-25.5 -42t-18.5 -66.5h202z" />
<glyph unicode="&#x2122;" horiz-adv-x="796" d="M495 324l-82 290v-290h-82v321h-100v-321h-94v321h-97v75h418l74 -271l74 271h130v-396h-89v290l-79 -290h-73z" />
<glyph unicode="&#x25fc;" d="M0 540h540v-540h-540v540z" />
<glyph horiz-adv-x="297" d="M267 768h-107l-130 117h152z" />
<glyph horiz-adv-x="419" d="M30 772v108h132v-108h-132zM257 772v108h132v-108h-132z" />
<glyph horiz-adv-x="297" d="M115 885h152l-130 -117h-107z" />
<glyph horiz-adv-x="436" d="M406 768h-130l-58 50l-57 -50h-131l120 117h136z" />
<glyph horiz-adv-x="370" d="M248 760q-24 0 -41 6t-31 13t-27.5 13t-30.5 6t-41.5 -9.5t-46.5 -26.5v100q22 16 46.5 24.5t45.5 8.5q24 0 41 -6t31 -13t27.5 -13t30.5 -6t41.5 9.5t46.5 26.5v-100q-22 -16 -46.5 -24.5t-45.5 -8.5z" />
</font>
</defs>
</svg>
